Начать новую тему Ответить на тему
Статистика раздачи
Размер: 343.75 МБ | Добавлен: 01 янв 2020, 22:45 | Скачали: 0
Сидеров: 0  [0 байт/сек]    Личеров: 0  [0 байт/сек]
Пред. тема | След. тема 

Автор
Сообщение

СообщениеДобавлено: 01 янв 2020, 22:45 

Ответить с цитатой 

Aldebert / Enfantillages
Жанр: Chanson française
Страна-производитель диска: E.U.
Год издания: 2008
Издатель (лейбл): Warner Music France
Номер по каталогу: 2564694165
Страна: Франция
Аудиокодек: FLAC (*.flac)
Тип рипа: image+.cue
Битрейт аудио: lossless
Продолжительность: 50:08.213
Источник (релизер): nikolianidvora
Наличие сканов в содержимом раздачи: да
Треклист:
01. On ne peut rien faire quand on est petit [3:01]
02. J'ai peur du noir [2:57]
03. Les oiseaux dans les grands magasins [3:02]
04. Super Mamie [3:25]
05. La remueuse [3:18]
06. Plus tard quand tu seras grand [2:53]
07. Les questions [2:45]
08. Monsieur Toulmonde [2:44]
09. Pour louper l'école [2:47]
10. Les mots mélangés [2:49]
11. Pépette [3:27]
12. Pas plus compliqué que ça [3:23]
13. Quelle histoire de fou ! [4:04]
14. Le goûter extraordinaire [3:43]
15. Le retour de Pépette [3:38]
16. On m'a volé mon nin-nin ! [2:02]
Код:
Exact Audio Copy V0.99 prebeta 4 from 23. January 2008
Отчёт EAC об извлечении, выполненном 19. июля 2012, 17:18
Aldebert / Enfantillages
Дисковод: PIONEER DVD-RW  DVRKD08   Adapter: 1  ID: 0
Режим чтения                 : Достоверность
Использование точного потока : Да
Отключение кэша аудио        : Да
Использование указателей C2  : Нет
Коррекция смещения при чтении                     : 48
Способность читать области Lead-in и Lead-out     : Нет
Заполнение пропущенных сэмплов тишиной            : Да
Удаление блоков с тишиной в начале и конце        : Нет
При вычислениях CRC использовались нулевые сэмплы : Нет
Интерфейс                                         : Встроенный Win32-интерфейс для Win NT/2000
Выходной формат : Внутренние WAV-операции
Формат сэмплов  : 44.100 Гц; 16 бит; стерео
TOC извлечённого CD
     Трек |   Старт  | Длительность | Начальный сектор | Конечный сектор
    ---------------------------------------------------------------------
       1  |  0:00.00 |    3:01.07   |           0      |      13581
       2  |  3:01.07 |    2:57.65   |       13582      |      26921
       3  |  5:58.72 |    3:02.51   |       26922      |      40622
       4  |  9:01.48 |    3:25.58   |       40623      |      56055
       5  | 12:27.31 |    3:18.62   |       56056      |      70967
       6  | 15:46.18 |    2:53.57   |       70968      |      83999
       7  | 18:40.00 |    2:45.52   |       84000      |      96426
       8  | 21:25.52 |    2:44.68   |       96427      |     108794
       9  | 24:10.45 |    2:47.15   |      108795      |     121334
      10  | 26:57.60 |    2:49.07   |      121335      |     134016
      11  | 29:46.67 |    3:27.65   |      134017      |     149606
      12  | 33:14.57 |    3:23.59   |      149607      |     164890
      13  | 36:38.41 |    4:04.69   |      164891      |     183259
      14  | 40:43.35 |    3:43.38   |      183260      |     200022
      15  | 44:26.73 |    3:38.21   |      200023      |     216393
      16  | 48:05.19 |    2:02.72   |      216394      |     225615
Характеристики диапазона извлечения и сообщения об ошибках
Выбранный диапазон
     Имя файла D:\Music\Aldebert\lossless\2008 - Enfantillages\Aldebert - Enfantillages.wav
     Пиковый уровень 100.0 %
     Качество диапазона 100.0 %
     CRC копии 8648B46C
     Копирование... OK
Ошибок не произошло
Конец отчёта
Код:
REM GENRE "Chanson francaise"
REM DATE 2008
REM DISCID F40BC010
REM COMMENT "ExactAudioCopy v0.99pb4"
PERFORMER "Aldebert"
TITLE "Enfantillages"
FILE "Aldebert - Enfantillages.flac" WAVE
  TRACK 01 AUDIO
    TITLE "On ne peut rien faire quand on est petit"
    PERFORMER "Aldebert"
    INDEX 01 00:00:00
  TRACK 02 AUDIO
    TITLE "J'ai peur du noir"
    PERFORMER "Aldebert"
    INDEX 00 03:00:29
    INDEX 01 03:01:07
  TRACK 03 AUDIO
    TITLE "Les oiseaux dans les grands magasins"
    PERFORMER "Aldebert"
    INDEX 00 05:57:44
    INDEX 01 05:58:72
  TRACK 04 AUDIO
    TITLE "Super Mamie"
    PERFORMER "Aldebert"
    INDEX 00 09:01:17
    INDEX 01 09:01:48
  TRACK 05 AUDIO
    TITLE "La remueuse"
    PERFORMER "Aldebert"
    INDEX 00 12:26:64
    INDEX 01 12:27:31
  TRACK 06 AUDIO
    TITLE "Plus tard quand tu seras grand"
    PERFORMER "Aldebert"
    INDEX 00 15:45:37
    INDEX 01 15:46:18
  TRACK 07 AUDIO
    TITLE "Les questions"
    PERFORMER "Aldebert"
    INDEX 00 18:39:21
    INDEX 01 18:40:00
  TRACK 08 AUDIO
    TITLE "Monsieur Toulmonde"
    PERFORMER "Aldebert"
    INDEX 01 21:25:52
  TRACK 09 AUDIO
    TITLE "Pour louper l'ecole"
    PERFORMER "Aldebert"
    INDEX 00 24:08:26
    INDEX 01 24:10:45
  TRACK 10 AUDIO
    TITLE "Les mots melanges"
    PERFORMER "Aldebert"
    INDEX 00 26:56:31
    INDEX 01 26:57:60
  TRACK 11 AUDIO
    TITLE "Pepette"
    PERFORMER "Aldebert"
    INDEX 00 29:43:40
    INDEX 01 29:46:67
  TRACK 12 AUDIO
    TITLE "Pas plus complique que ca"
    PERFORMER "Aldebert"
    INDEX 00 33:13:47
    INDEX 01 33:14:57
  TRACK 13 AUDIO
    TITLE "Quelle histoire de fou !"
    PERFORMER "Aldebert"
    INDEX 00 36:36:72
    INDEX 01 36:38:41
  TRACK 14 AUDIO
    TITLE "Le gouter extraordinaire"
    PERFORMER "Aldebert"
    INDEX 00 40:41:19
    INDEX 01 40:43:35
  TRACK 15 AUDIO
    TITLE "Le retour de Pepette"
    PERFORMER "Aldebert"
    INDEX 00 44:25:31
    INDEX 01 44:26:73
  TRACK 16 AUDIO
    TITLE "On m'a vole mon nin-nin !"
    PERFORMER "Aldebert"
    INDEX 00 48:03:40
    INDEX 01 48:05:19
Доп. информация: (Chanson française) Aldebert - Les paradis disponibles - 2006, FLAC (image+.cue), lossless
(Chanson française) Aldebert - Дискография (8 альбомов) - 2000-2011, MP3, 128-320 kbps
Оф. сайт: http://www.aldebert.com/
Правила, инструкции, FAQ!!!
Торрент  Добавлен [01 янв 2020, 22:45] Скачать торрент Магнет ссылка
Скачать торрент
[ Размер 15.5 КБ / Просмотров 5 ]

Статус
Проверен 
 
Размер  343.75 МБ
Приватный: Нет (DHT включён)
.torrent скачан  0
 


     Отправить личное сообщение
   
Страница 1 из 1
Показать сообщения за:  Поле сортировки  
Начать новую тему Ответить на тему


Сейчас этот форум просматривают: нет зарегистрированных пользователей и гости: 0


Вы не можете начинать темы
Вы не можете отвечать на сообщения
Вы не можете редактировать свои сообщения
Вы не можете удалять свои сообщения
Вы не можете добавлять вложения

Перейти:  
cron