Начать новую тему Ответить на тему
Статистика раздачи
Размер: 2 ГБ | Добавлен: 01 янв 2020, 22:45 | Скачали: 0
Сидеров: 0  [0 байт/сек]    Личеров: 0  [0 байт/сек]
Пред. тема | След. тема 

Автор
Сообщение

СообщениеДобавлено: 01 янв 2020, 22:45 

Ответить с цитатой 

Mes Aieux (Mes Aïeux)
Дискография

Жанр: chanson, folk-rock, easy listening, vocals
Страна-производитель диска: Канада
Год издания диска: 2000-2008
Страна: Канада
Аудиокодек: FLAC (*.flac)
Тип рипа: tracks+.cue
Битрейт аудио: lossless
Продолжительность: 5 CD
Наличие сканов в содержимом раздачи: да
Год издания диска: 2000
Издатель (лейбл): Disques Victoire/ DEP
Номер по каталогу: VIC-CD-720
Продолжительность: 50:50
Источник (релизер): theRadDept (what.cd)
Треклист:
01 - Acabris, Acabras, Acabram! (3:34)
02 - Jamais La Plus Belle (5:23)
03 - Dondaine (4:07)
04 - 2096 (Chanson À Boire) (4:28)
05 - Ville Fantôme (4:15)
06 - La Capitulation (5:59)
07 - Remède Miracle (4:43)
08 - Rose Latulipe (3:42)
09 - Swigne La Bacaisse (4:04)
10 - Sur Le Bord De La Rivière Rouge (4:21)
11 - Descendus Au Chantier (6:13)
Код:
Exact Audio Copy V0.99 prebeta 4 from 23. January 2008
EAC extraction logfile from 26. July 2009, 8:26
Mes Aпeux / Зa Parle Au Diable
Used drive  : TSSTcorpCDDVDW SH-S223Q   Adapter: 2  ID: 1
Read mode               : Secure
Utilize accurate stream : Yes
Defeat audio cache      : Yes
Make use of C2 pointers : No
Read offset correction                      : 6
Overread into Lead-In and Lead-Out          : No
Fill up missing offset samples with silence : Yes
Delete leading and trailing silent blocks   : No
Null samples used in CRC calculations       : Yes
Used interface                              : Native Win32 interface for Win NT & 2000
Gap handling                                : Appended to previous track
Used output format              : User Defined Encoder
Selected bitrate                : 768 kBit/s
Quality                         : High
Add ID3 tag                     : No
Command line compressor         : C:\Program Files\FLAC\flac.exe
Additional command line options : -V -8 -T "artist=%a" -T "title=%t" -T "album=%g" -T "date=%y" -T "tracknumber=%n" %s
TOC of the extracted CD
     Track |   Start  |  Length  | Start sector | End sector
    ---------------------------------------------------------
        1  |  0:00.00 |  3:34.05 |         0    |    16054
        2  |  3:34.05 |  5:22.52 |     16055    |    40256
        3  |  8:56.57 |  4:07.34 |     40257    |    58815
        4  | 13:04.16 |  4:28.16 |     58816    |    78931
        5  | 17:32.32 |  4:15.00 |     78932    |    98056
        6  | 21:47.32 |  5:59.35 |     98057    |   125016
        7  | 27:46.67 |  4:42.69 |    125017    |   146235
        8  | 32:29.61 |  3:42.25 |    146236    |   162910
        9  | 36:12.11 |  4:04.14 |    162911    |   181224
       10  | 40:16.25 |  4:21.10 |    181225    |   200809
       11  | 44:37.35 |  6:12.61 |    200810    |   228770
Track  1
     Filename C:\Hi there RIAA, What's up IFPI\Mes Aпeux - Ca Parle Au Diable\01 - Acabris, Acabras, Acabrami.wav
     Pre-gap length  0:00:02.00
     Peak level 98.8 %
     Track quality 100.0 %
     Test CRC 6F7EAB58
     Copy CRC 6F7EAB58
     Cannot be verified as accurate (confidence 3)  [6C404BDD], AccurateRip returned [E1ADC110]
     Copy OK
Track  2
     Filename C:\Hi there RIAA, What's up IFPI\Mes Aпeux - Ca Parle Au Diable\02 - Jamais La Plus Belle.wav
     Peak level 98.8 %
     Track quality 100.0 %
     Test CRC 8D469378
     Copy CRC 8D469378
     Cannot be verified as accurate (confidence 2)  [375ED720], AccurateRip returned [2B0CFBB7]
     Copy OK
Track  3
     Filename C:\Hi there RIAA, What's up IFPI\Mes Aпeux - Ca Parle Au Diable\03 - Dondaine.wav
     Pre-gap length  0:00:02.00
     Peak level 98.7 %
     Track quality 100.0 %
     Test CRC E3FC291E
     Copy CRC E3FC291E
     Cannot be verified as accurate (confidence 3)  [0DFF4C07], AccurateRip returned [1BB115BB]
     Copy OK
Track  4
     Filename C:\Hi there RIAA, What's up IFPI\Mes Aпeux - Ca Parle Au Diable\04 - 2096 (Chanson А Boire).wav
     Peak level 99.3 %
     Track quality 100.0 %
     Test CRC 1296392E
     Copy CRC 1296392E
     Cannot be verified as accurate (confidence 3)  [E8B6D44D], AccurateRip returned [5169F6C1]
     Copy OK
Track  5
     Filename C:\Hi there RIAA, What's up IFPI\Mes Aпeux - Ca Parle Au Diable\05 - Ville Fantфme.wav
     Pre-gap length  0:00:01.98
     Peak level 98.8 %
     Track quality 99.9 %
     Test CRC 4D11D899
     Copy CRC 4D11D899
     Cannot be verified as accurate (confidence 3)  [2D2E57C9], AccurateRip returned [A0C3F1F1]
     Copy OK
Track  6
     Filename C:\Hi there RIAA, What's up IFPI\Mes Aпeux - Ca Parle Au Diable\06 - La Capitulation.wav
     Pre-gap length  0:00:02.01
     Peak level 98.8 %
     Track quality 100.0 %
     Test CRC BE6A2999
     Copy CRC BE6A2999
     Cannot be verified as accurate (confidence 3)  [ADE87637], AccurateRip returned [F58F15D7]
     Copy OK
Track  7
     Filename C:\Hi there RIAA, What's up IFPI\Mes Aпeux - Ca Parle Au Diable\07 - Remиde Miracle.wav
     Pre-gap length  0:00:03.62
     Peak level 98.6 %
     Track quality 99.9 %
     Test CRC CCF8687E
     Copy CRC CCF8687E
     Cannot be verified as accurate (confidence 3)  [9D7EB8AD], AccurateRip returned [366F326D]
     Copy OK
Track  8
     Filename C:\Hi there RIAA, What's up IFPI\Mes Aпeux - Ca Parle Au Diable\08 - Rose Latulipe.wav
     Pre-gap length  0:00:00.97
     Peak level 98.8 %
     Track quality 100.0 %
     Test CRC F93261EA
     Copy CRC F93261EA
     Cannot be verified as accurate (confidence 3)  [6084CF06], AccurateRip returned [D0C119AE]
     Copy OK
Track  9
     Filename C:\Hi there RIAA, What's up IFPI\Mes Aпeux - Ca Parle Au Diable\09 - Swigne La Bacaisse.wav
     Pre-gap length  0:00:00.58
     Peak level 99.4 %
     Track quality 100.0 %
     Test CRC AC609D10
     Copy CRC AC609D10
     Cannot be verified as accurate (confidence 3)  [DDF680D6], AccurateRip returned [43334E9E]
     Copy OK
Track 10
     Filename C:\Hi there RIAA, What's up IFPI\Mes Aпeux - Ca Parle Au Diable\10 - Sur Le Bord De La Riviиre Rouge.wav
     Pre-gap length  0:00:01.10
     Peak level 98.8 %
     Track quality 100.0 %
     Test CRC 9F79CD13
     Copy CRC 9F79CD13
     Cannot be verified as accurate (confidence 3)  [F42EEA54], AccurateRip returned [4D7697EC]
     Copy OK
Track 11
     Filename C:\Hi there RIAA, What's up IFPI\Mes Aпeux - Ca Parle Au Diable\11 - Descendus Au Chantier.wav
     Pre-gap length  0:00:02.40
     Peak level 98.7 %
     Track quality 100.0 %
     Test CRC BF2C9C70
     Copy CRC BF2C9C70
     Cannot be verified as accurate (confidence 2)  [926A6993], AccurateRip returned [84E456F7]
     Copy OK
No tracks could be verified as accurate
You may have a different pressing from the one(s) in the database
No errors occurred
End of status report
Код:
REM DATE 2000
REM DISCID A10BEA0B
REM COMMENT "ExactAudioCopy v0.99pb4"
PERFORMER "Mes Aïeux"
TITLE "Ca Parle Au Diable"
FILE "01 - Acabris, Acabras, Acabram!.flac" WAVE
  TRACK 01 AUDIO
    TITLE "Acabris, Acabras, Acabram!"
    PERFORMER "Mes Aïeux"
    INDEX 01 00:00:00
FILE "02 - Jamais La Plus Belle.flac" WAVE
  TRACK 02 AUDIO
    TITLE "Jamais La Plus Belle"
    PERFORMER "Mes Aïeux"
    INDEX 01 00:00:00
  TRACK 03 AUDIO
    TITLE "Dondaine"
    PERFORMER "Mes Aïeux"
    INDEX 00 05:20:52
FILE "03 - Dondaine.flac" WAVE
    INDEX 01 00:00:00
FILE "04 - 2096 (Chanson A Boire).flac" WAVE
  TRACK 04 AUDIO
    TITLE "2096 (Chanson А Boire)"
    PERFORMER "Mes Aïeux"
    INDEX 01 00:00:00
  TRACK 05 AUDIO
    TITLE "Ville Fantôme"
    PERFORMER "Mes Aïeux"
    INDEX 00 04:26:17
FILE "05 - Ville Fantome.flac" WAVE
    INDEX 01 00:00:00
  TRACK 06 AUDIO
    TITLE "La Capitulation"
    PERFORMER "Mes Aïeux"
    INDEX 00 04:12:74
FILE "06 - La Capitulation.flac" WAVE
    INDEX 01 00:00:00
  TRACK 07 AUDIO
    TITLE "Remède Miracle"
    PERFORMER "Mes Aïeux"
    INDEX 00 05:55:63
FILE "07 - Remede Miracle.flac" WAVE
    INDEX 01 00:00:00
  TRACK 08 AUDIO
    TITLE "Rose Latulipe"
    PERFORMER "Mes Aïeux"
    INDEX 00 04:41:71
FILE "08 - Rose Latulipe.flac" WAVE
    INDEX 01 00:00:00
  TRACK 09 AUDIO
    TITLE "Swigne La Bacaisse"
    PERFORMER "Mes Aïeux"
    INDEX 00 03:41:56
FILE "09 - Swigne La Bacaisse.flac" WAVE
    INDEX 01 00:00:00
  TRACK 10 AUDIO
    TITLE "Sur Le Bord De La Rivière Rouge"
    PERFORMER "Mes Aïeux"
    INDEX 00 04:03:06
FILE "10 - Sur Le Bord De La Riviere Rouge.flac" WAVE
    INDEX 01 00:00:00
  TRACK 11 AUDIO
    TITLE "Descendus Au Chantier"
    PERFORMER "Mes Aïeux"
    INDEX 00 04:18:55
FILE "11 - Descendus Au Chantier.flac" WAVE
    INDEX 01 00:00:00
Код:
AUDIOCHECKER v2.0 beta (build 457) - by Dester - opdester@freemail.hu
~~~~~~~~~~~~~~~~~~~~~~~~~~~~~~~~~~
-=== DO NOT EDIT THIS FILE! ===-
Path: ...\Mes Aieux-[2000]-Ca Parle Au Diable_flac
01 -=- 01 - Acabris, Acabras, Acabram!.flac -=- CDDA (100%)
02 -=- 02 - Jamais La Plus Belle.flac -=- CDDA (100%)
03 -=- 03 - Dondaine.flac -=- CDDA (100%)
04 -=- 04 - 2096 (Chanson A Boire).flac -=- CDDA (100%)
05 -=- 05 - Ville Fantome.flac -=- CDDA (100%)
06 -=- 06 - La Capitulation.flac -=- CDDA (100%)
07 -=- 07 - Remede Miracle.flac -=- CDDA (100%)
08 -=- 08 - Rose Latulipe.flac -=- CDDA (100%)
09 -=- 09 - Swigne La Bacaisse.flac -=- CDDA (100%)
10 -=- 10 - Sur Le Bord De La Riviere Rouge.flac -=- CDDA (100%)
11 -=- 11 - Descendus Au Chantier.flac -=- CDDA (100%)
Summary 100,00% CDDA
182264836
#777Год издания диска: 2001
Издатель (лейбл): Disques Victoire/ DEP
Номер по каталогу: VIC2-1631
Продолжительность: 50:47
Источник (релизер): theRadDept (what.cd)
Треклист:
01 - Le Yâbe Est Dans La Cabane (3:56)
02 - Le Temps Des Semences (3:26)
03 - La Prison De Londres (3:57)
04 - Juste Et Bon (4:32)
05 - Qui Nous Mène? (4:25)
06 - Vie De Chien (5:49)
07 - Tout Seul (À Répondre) (4:21)
08 - Le Reel Du Funk (2:58)
09 - L'héritage (5:35)
10 - La Corrida De La Corriveau (4:11)
11 - Mononcle Prémi (3:54)
12 - Le Bedeau Est Amoureux (3:42)
Код:
Exact Audio Copy V0.99 prebeta 4 from 23. January 2008
EAC extraction logfile from 8. August 2009, 13:29
Mes Aпeux / Entre Les Branches
Used drive  : HL-DT-STDVDRAM GH20NS10   Adapter: 3  ID: 0
Read mode               : Secure
Utilize accurate stream : Yes
Defeat audio cache      : Yes
Make use of C2 pointers : No
Read offset correction                      : 667
Overread into Lead-In and Lead-Out          : No
Fill up missing offset samples with silence : Yes
Delete leading and trailing silent blocks   : No
Null samples used in CRC calculations       : Yes
Used interface                              : Native Win32 interface for Win NT & 2000
Gap handling                                : Appended to previous track
Used output format              : User Defined Encoder
Selected bitrate                : 768 kBit/s
Quality                         : High
Add ID3 tag                     : No
Command line compressor         : C:\Program Files\FLAC\flac.exe
Additional command line options : -V -8 -T "artist=%a" -T "title=%t" -T "album=%g" -T "date=%y" -T "tracknumber=%n" %s
TOC of the extracted CD
     Track |   Start  |  Length  | Start sector | End sector
    ---------------------------------------------------------
        1  |  0:00.00 |  3:56.30 |         0    |    17729
        2  |  3:56.30 |  3:26.26 |     17730    |    33205
        3  |  7:22.56 |  3:57.07 |     33206    |    50987
        4  | 11:19.63 |  4:31.68 |     50988    |    71380
        5  | 15:51.56 |  4:24.61 |     71381    |    91241
        6  | 20:16.42 |  5:49.30 |     91242    |   117446
        7  | 26:05.72 |  4:21.22 |    117447    |   137043
        8  | 30:27.19 |  2:58.10 |    137044    |   150403
        9  | 33:25.29 |  5:34.44 |    150404    |   175497
       10  | 38:59.73 |  4:11.19 |    175498    |   194341
       11  | 43:11.17 |  3:54.11 |    194342    |   211902
       12  | 47:05.28 |  3:42.09 |    211903    |   228561
Track  1
     Filename C:\Hi there RIAA, What's up IFPI\Mes Aпeux - Entre Les Branches\01 - Le Yвbe Est Dans La Cabane.wav
     Pre-gap length  0:00:02.00
     Peak level 98.8 %
     Track quality 100.0 %
     Test CRC 16E4C340
     Copy CRC 16E4C340
     Accurately ripped (confidence 3)  [39B41058]
     Copy OK
Track  2
     Filename C:\Hi there RIAA, What's up IFPI\Mes Aпeux - Entre Les Branches\02 - Le Temps Des Semences.wav
     Peak level 98.8 %
     Track quality 100.0 %
     Test CRC C646B87B
     Copy CRC C646B87B
     Accurately ripped (confidence 3)  [2989CF3A]
     Copy OK
Track  3
     Filename C:\Hi there RIAA, What's up IFPI\Mes Aпeux - Entre Les Branches\03 - La Prison De Londres.wav
     Peak level 98.8 %
     Track quality 99.9 %
     Test CRC F4645ADC
     Copy CRC F4645ADC
     Accurately ripped (confidence 2)  [56D05C62]
     Copy OK
Track  4
     Filename C:\Hi there RIAA, What's up IFPI\Mes Aпeux - Entre Les Branches\04 - Juste Et Bon.wav
     Pre-gap length  0:00:01.29
     Peak level 98.8 %
     Track quality 100.0 %
     Test CRC B53F30A2
     Copy CRC B53F30A2
     Accurately ripped (confidence 3)  [E38259B0]
     Copy OK
Track  5
     Filename C:\Hi there RIAA, What's up IFPI\Mes Aпeux - Entre Les Branches\05 - Qui Nous Mиne .wav
     Peak level 98.8 %
     Track quality 100.0 %
     Test CRC 8AB22D29
     Copy CRC 8AB22D29
     Accurately ripped (confidence 3)  [9C7A5450]
     Copy OK
Track  6
     Filename C:\Hi there RIAA, What's up IFPI\Mes Aпeux - Entre Les Branches\06 - Vie De Chien.wav
     Peak level 98.8 %
     Track quality 100.0 %
     Test CRC 0D58408A
     Copy CRC 0D58408A
     Accurately ripped (confidence 3)  [8F817CCB]
     Copy OK
Track  7
     Filename C:\Hi there RIAA, What's up IFPI\Mes Aпeux - Entre Les Branches\07 - Tout Seul (А Rйpondre).wav
     Pre-gap length  0:00:01.10
     Peak level 98.8 %
     Track quality 100.0 %
     Test CRC 3D9CE870
     Copy CRC 3D9CE870
     Accurately ripped (confidence 3)  [B766AACB]
     Copy OK
Track  8
     Filename C:\Hi there RIAA, What's up IFPI\Mes Aпeux - Entre Les Branches\08 - Le Reel Du Funk.wav
     Peak level 98.8 %
     Track quality 100.0 %
     Test CRC C69178E2
     Copy CRC C69178E2
     Accurately ripped (confidence 3)  [91C43864]
     Copy OK
Track  9
     Filename C:\Hi there RIAA, What's up IFPI\Mes Aпeux - Entre Les Branches\09 - L'hйritage.wav
     Peak level 98.8 %
     Track quality 100.0 %
     Test CRC 8CEE4DA3
     Copy CRC 8CEE4DA3
     Accurately ripped (confidence 3)  [DB887019]
     Copy OK
Track 10
     Filename C:\Hi there RIAA, What's up IFPI\Mes Aпeux - Entre Les Branches\10 - La Corrida De La Corriveau.wav
     Pre-gap length  0:00:01.37
     Peak level 98.8 %
     Track quality 100.0 %
     Test CRC 4947204B
     Copy CRC 4947204B
     Accurately ripped (confidence 3)  [8A6DA22F]
     Copy OK
Track 11
     Filename C:\Hi there RIAA, What's up IFPI\Mes Aпeux - Entre Les Branches\11 - Mononcle Prйmi.wav
     Pre-gap length  0:00:01.05
     Peak level 98.8 %
     Track quality 100.0 %
     Test CRC 529591E0
     Copy CRC 529591E0
     Accurately ripped (confidence 3)  [E67798BC]
     Copy OK
Track 12
     Filename C:\Hi there RIAA, What's up IFPI\Mes Aпeux - Entre Les Branches\12 - Le Bedeau Est Amoureux.wav
     Peak level 99.9 %
     Track quality 100.0 %
     Test CRC 0AA53044
     Copy CRC 0AA53044
     Accurately ripped (confidence 3)  [5C2BFE64]
     Copy OK
All tracks accurately ripped
No errors occurred
End of status report
Код:
REM DATE 2001
REM DISCID A70BE70C
REM COMMENT "ExactAudioCopy v0.99pb4"
PERFORMER "Mes Aïeux"
TITLE "Entre Les Branches"
FILE "01 - Le Yabe Est Dans La Cabane.flac" WAVE
  TRACK 01 AUDIO
    TITLE "Le Yâbe Est Dans La Cabane"
    PERFORMER "Mes Aïeux"
    INDEX 01 00:00:00
FILE "02 - Le Temps Des Semences.flac" WAVE
  TRACK 02 AUDIO
    TITLE "Le Temps Des Semences"
    PERFORMER "Mes Aïeux"
    INDEX 01 00:00:00
FILE "03 - La Prison De Londres.flac" WAVE
  TRACK 03 AUDIO
    TITLE "La Prison De Londres"
    PERFORMER "Mes Aïeux"
    INDEX 01 00:00:00
  TRACK 04 AUDIO
    TITLE "Juste Et Bon"
    PERFORMER "Mes Aïeux"
    INDEX 00 03:55:60
FILE "04 - Juste Et Bon.flac" WAVE
    INDEX 01 00:00:00
FILE "05 - Qui Nous Mene.flac" WAVE
  TRACK 05 AUDIO
    TITLE "Qui Nous Mène?"
    PERFORMER "Mes Aïeux"
    INDEX 01 00:00:00
FILE "06 - Vie De Chien.flac" WAVE
  TRACK 06 AUDIO
    TITLE "Vie De Chien"
    PERFORMER "Mes Aïeux"
    INDEX 01 00:00:00
  TRACK 07 AUDIO
    TITLE "Tout Seul (A Répondre)"
    PERFORMER "Mes Aïeux"
    INDEX 00 05:48:22
FILE "07 - Tout Seul (A Repondre).flac" WAVE
    INDEX 01 00:00:00
FILE "08 - Le Reel Du Funk.flac" WAVE
  TRACK 08 AUDIO
    TITLE "Le Reel Du Funk"
    PERFORMER "Mes Aïeux"
    INDEX 01 00:00:00
FILE "09 - L'heritage.flac" WAVE
  TRACK 09 AUDIO
    TITLE "L'héritage"
    PERFORMER "Mes Aïeux"
    INDEX 01 00:00:00
  TRACK 10 AUDIO
    TITLE "La Corrida De La Corriveau"
    PERFORMER "Mes Aïeux"
    INDEX 00 05:33:16
FILE "10 - La Corrida De La Corriveau.flac" WAVE
    INDEX 01 00:00:00
  TRACK 11 AUDIO
    TITLE "Mononcle Prémi"
    PERFORMER "Mes Aïeux"
    INDEX 00 04:10:15
FILE "11 - Mononcle Premi.flac" WAVE
    INDEX 01 00:00:00
FILE "12 - Le Bedeau Est Amoureux.flac" WAVE
  TRACK 12 AUDIO
    TITLE "Le Bedeau Est Amoureux"
    PERFORMER "Mes Aïeux"
    INDEX 01 00:00:00
Код:
AUDIOCHECKER v2.0 beta (build 457) - by Dester - opdester@freemail.hu
~~~~~~~~~~~~~~~~~~~~~~~~~~~~~~~~~~
-=== DO NOT EDIT THIS FILE! ===-
Path: ...\Mes Aieux-[2001]-Entre les Branches_flac
01 -=- 01 - Le Yabe Est Dans La Cabane.flac -=- CDDA (100%)
02 -=- 02 - Le Temps Des Semences.flac -=- CDDA (100%)
03 -=- 03 - La Prison De Londres.flac -=- CDDA (100%)
04 -=- 04 - Juste Et Bon.flac -=- CDDA (100%)
05 -=- 05 - Qui Nous Mene.flac -=- CDDA (100%)
06 -=- 06 - Vie De Chien.flac -=- CDDA (100%)
07 -=- 07 - Tout Seul (A Repondre).flac -=- CDDA (100%)
08 -=- 08 - Le Reel Du Funk.flac -=- CDDA (100%)
09 -=- 09 - L'heritage.flac -=- CDDA (100%)
10 -=- 10 - La Corrida De La Corriveau.flac -=- CDDA (100%)
11 -=- 11 - Mononcle Premi.flac -=- CDDA (100%)
12 -=- 12 - Le Bedeau Est Amoureux.flac -=- CDDA (100%)
Summary 100,00% CDDA
165186516
#777Год издания диска: 2004
Издатель (лейбл): Disques Victoire/ DEP
Номер по каталогу: VIC2-1871
Продолжительность: 1:06:40
Источник (релизер): theRadDept (what.cd)
Треклист:
01 - Dégénérations / Le Reel Du Fossé (5:25)
02 - Ça Va Mal (5:16)
03 - Continuer Pareil (3:44)
04 - Toune En On (5:13)
05 - Le Repos Du Guerrier (4:15)
06 - Ton Père Est Un Croche (4:06)
07 - La Grande Déclaration (5:42)
08 - Dans La Capitale (5:32)
09 - Hommage En Grains (4:13)
10 - Train De Vie (Le Surcheval) (6:25)
11 - En Vérité (4:35)
12 - Ta Mie T'attend (6:19)
13 - En Famille (5:56)
Код:
Exact Audio Copy V0.99 prebeta 4 from 23. January 2008
EAC extraction logfile from 19. September 2009, 8:18
Mes Aпeux / En Famille
Used drive  : TSSTcorpCDDVDW SH-S223Q   Adapter: 2  ID: 1
Read mode               : Secure
Utilize accurate stream : Yes
Defeat audio cache      : Yes
Make use of C2 pointers : No
Read offset correction                      : 6
Overread into Lead-In and Lead-Out          : No
Fill up missing offset samples with silence : Yes
Delete leading and trailing silent blocks   : No
Null samples used in CRC calculations       : Yes
Used interface                              : Native Win32 interface for Win NT & 2000
Gap handling                                : Appended to previous track
Used output format              : User Defined Encoder
Selected bitrate                : 768 kBit/s
Quality                         : High
Add ID3 tag                     : No
Command line compressor         : C:\Program Files\FLAC\flac.exe
Additional command line options : -V -8 -T "artist=%a" -T "title=%t" -T "album=%g" -T "date=%y" -T "tracknumber=%n" %s
TOC of the extracted CD
     Track |   Start  |  Length  | Start sector | End sector
    ---------------------------------------------------------
        1  |  0:00.00 |  5:24.59 |         0    |    24358
        2  |  5:24.59 |  5:16.20 |     24359    |    48078
        3  | 10:41.04 |  3:43.46 |     48079    |    64849
        4  | 14:24.50 |  5:13.36 |     64850    |    88360
        5  | 19:38.11 |  4:15.05 |     88361    |   107490
        6  | 23:53.16 |  4:06.10 |    107491    |   125950
        7  | 27:59.26 |  5:41.45 |    125951    |   151570
        8  | 33:40.71 |  5:32.32 |    151571    |   176502
        9  | 39:13.28 |  4:13.02 |    176503    |   195479
       10  | 43:26.30 |  6:25.01 |    195480    |   224355
       11  | 49:51.31 |  4:35.03 |    224356    |   244983
       12  | 54:26.34 |  6:18.49 |    244984    |   273382
       13  | 60:45.08 |  5:55.55 |    273383    |   300062
Track  1
     Filename C:\Hi there RIAA, What's up IFPI\Mes Aпeux - En Famille\01 - Dйgйnйrations , Le Reel Du Fossй.wav
     Pre-gap length  0:00:02.00
     Peak level 100.0 %
     Track quality 100.0 %
     Test CRC 268DDF84
     Copy CRC 268DDF84
     Accurately ripped (confidence 16)  [9AC613D6]
     Copy OK
Track  2
     Filename C:\Hi there RIAA, What's up IFPI\Mes Aпeux - En Famille\02 - Зa Va Mal.wav
     Peak level 100.0 %
     Track quality 100.0 %
     Test CRC C7F82DD7
     Copy CRC C7F82DD7
     Accurately ripped (confidence 14)  [EC6FA3E8]
     Copy OK
Track  3
     Filename C:\Hi there RIAA, What's up IFPI\Mes Aпeux - En Famille\03 - Continuer Pareil.wav
     Peak level 100.0 %
     Track quality 100.0 %
     Test CRC 672A32D6
     Copy CRC 672A32D6
     Accurately ripped (confidence 16)  [A40E4090]
     Copy OK
Track  4
     Filename C:\Hi there RIAA, What's up IFPI\Mes Aпeux - En Famille\04 - Toune En On.wav
     Pre-gap length  0:00:01.65
     Peak level 100.0 %
     Track quality 99.9 %
     Test CRC CF329902
     Copy CRC CF329902
     Accurately ripped (confidence 15)  [6C15B557]
     Copy OK
Track  5
     Filename C:\Hi there RIAA, What's up IFPI\Mes Aпeux - En Famille\05 - Le Repos Du Guerrier.wav
     Peak level 100.0 %
     Track quality 100.0 %
     Test CRC B9D7851E
     Copy CRC B9D7851E
     Accurately ripped (confidence 16)  [0018C790]
     Copy OK
Track  6
     Filename C:\Hi there RIAA, What's up IFPI\Mes Aпeux - En Famille\06 - Ton Pиre Est Un Croche.wav
     Peak level 100.0 %
     Track quality 100.0 %
     Test CRC 612FD023
     Copy CRC 612FD023
     Accurately ripped (confidence 15)  [36C435B5]
     Copy OK
Track  7
     Filename C:\Hi there RIAA, What's up IFPI\Mes Aпeux - En Famille\07 - La Grande Dйclaration.wav
     Peak level 100.0 %
     Track quality 100.0 %
     Test CRC 61DEDD0D
     Copy CRC 61DEDD0D
     Accurately ripped (confidence 15)  [DE78027F]
     Copy OK
Track  8
     Filename C:\Hi there RIAA, What's up IFPI\Mes Aпeux - En Famille\08 - Dans La Capitale.wav
     Peak level 100.0 %
     Track quality 100.0 %
     Test CRC 711868D7
     Copy CRC 711868D7
     Accurately ripped (confidence 15)  [09A687E5]
     Copy OK
Track  9
     Filename C:\Hi there RIAA, What's up IFPI\Mes Aпeux - En Famille\09 - Hommage En Grains.wav
     Pre-gap length  0:00:00.93
     Peak level 100.0 %
     Track quality 99.9 %
     Test CRC 27D2F223
     Copy CRC 27D2F223
     Accurately ripped (confidence 15)  [34C03A3C]
     Copy OK
Track 10
     Filename C:\Hi there RIAA, What's up IFPI\Mes Aпeux - En Famille\10 - Train De Vie (Le Surcheval).wav
     Pre-gap length  0:00:00.38
     Peak level 100.0 %
     Track quality 100.0 %
     Test CRC A9800CC1
     Copy CRC A9800CC1
     Accurately ripped (confidence 15)  [B1BFF96A]
     Copy OK
Track 11
     Filename C:\Hi there RIAA, What's up IFPI\Mes Aпeux - En Famille\11 - En Vйritй.wav
     Peak level 100.0 %
     Track quality 100.0 %
     Test CRC 2345AB01
     Copy CRC 2345AB01
     Accurately ripped (confidence 16)  [3DC5474B]
     Copy OK
Track 12
     Filename C:\Hi there RIAA, What's up IFPI\Mes Aпeux - En Famille\12 - Ta Mie T'attend.wav
     Peak level 100.0 %
     Track quality 100.0 %
     Test CRC 613A7AE6
     Copy CRC 613A7AE6
     Accurately ripped (confidence 15)  [1174F899]
     Copy OK
Track 13
     Filename C:\Hi there RIAA, What's up IFPI\Mes Aпeux - En Famille\13 - En Famille.wav
     Pre-gap length  0:00:00.62
     Peak level 100.0 %
     Track quality 100.0 %
     Test CRC 36F71767
     Copy CRC 36F71767
     Accurately ripped (confidence 15)  [1C8992C6]
     Copy OK
All tracks accurately ripped
No errors occurred
End of status report
Код:
REM DATE 2004
REM DISCID B80FA00D
REM COMMENT "ExactAudioCopy v0.99pb4"
PERFORMER "Mes Aïeux"
TITLE "En Famille"
FILE "01 - Degenerations , Le Reel Du Fosse.flac" WAVE
  TRACK 01 AUDIO
    TITLE "Dégénérations / Le Reel Du Fossé"
    PERFORMER "Mes Aïeux"
    INDEX 01 00:00:00
FILE "02 - Ca Va Mal.flac" WAVE
  TRACK 02 AUDIO
    TITLE "Ça Va Mal"
    PERFORMER "Mes Aïeux"
    INDEX 01 00:00:00
FILE "03 - Continuer Pareil.flac" WAVE
  TRACK 03 AUDIO
    TITLE "Continuer Pareil"
    PERFORMER "Mes Aïeux"
    INDEX 01 00:00:00
  TRACK 04 AUDIO
    TITLE "Toune En On"
    PERFORMER "Mes Aïeux"
    INDEX 00 03:41:72
FILE "04 - Toune En On.flac" WAVE
    INDEX 01 00:00:00
FILE "05 - Le Repos Du Guerrier.flac" WAVE
  TRACK 05 AUDIO
    TITLE "Le Repos Du Guerrier"
    PERFORMER "Mes Aïeux"
    INDEX 01 00:00:00
FILE "06 - Ton Pere Est Un Croche.flac" WAVE
  TRACK 06 AUDIO
    TITLE "Ton Père Est Un Croche"
    PERFORMER "Mes Aïeux"
    INDEX 01 00:00:00
FILE "07 - La Grande Declaration.flac" WAVE
  TRACK 07 AUDIO
    TITLE "La Grande Déclaration"
    PERFORMER "Mes Aïeux"
    INDEX 01 00:00:00
FILE "08 - Dans La Capitale.flac" WAVE
  TRACK 08 AUDIO
    TITLE "Dans La Capitale"
    PERFORMER "Mes Aïeux"
    INDEX 01 00:00:00
  TRACK 09 AUDIO
    TITLE "Hommage En Grains"
    PERFORMER "Mes Aïeux"
    INDEX 00 05:31:37
FILE "09 - Hommage En Grains.flac" WAVE
    INDEX 01 00:00:00
  TRACK 10 AUDIO
    TITLE "Train De Vie (Le Surcheval)"
    PERFORMER "Mes Aïeux"
    INDEX 00 04:12:48
FILE "10 - Train De Vie (Le Surcheval).flac" WAVE
    INDEX 01 00:00:00
FILE "11 - En Verite.flac" WAVE
  TRACK 11 AUDIO
    TITLE "En Vérité"
    PERFORMER "Mes Aïeux"
    INDEX 01 00:00:00
FILE "12 - Ta Mie T'attend.flac" WAVE
  TRACK 12 AUDIO
    TITLE "Ta Mie T'attend"
    PERFORMER "Mes Aïeux"
    INDEX 01 00:00:00
  TRACK 13 AUDIO
    TITLE "En Famille"
    PERFORMER "Mes Aïeux"
    INDEX 00 06:18:02
FILE "13 - En Famille.flac" WAVE
    INDEX 01 00:00:00
Код:
AUDIOCHECKER v2.0 beta (build 457) - by Dester - opdester@freemail.hu
~~~~~~~~~~~~~~~~~~~~~~~~~~~~~~~~~~
-=== DO NOT EDIT THIS FILE! ===-
Path: ...\Mes Aieux-[2004]-En Famille_flac
01 -=- 01 - Degenerations , Le Reel Du Fosse.flac -=- CDDA (100%)
02 -=- 02 - Ca Va Mal.flac -=- CDDA (100%)
03 -=- 03 - Continuer Pareil.flac -=- CDDA (100%)
04 -=- 04 - Toune En On.flac -=- CDDA (100%)
05 -=- 05 - Le Repos Du Guerrier.flac -=- CDDA (100%)
06 -=- 06 - Ton Pere Est Un Croche.flac -=- CDDA (100%)
07 -=- 07 - La Grande Declaration.flac -=- CDDA (100%)
08 -=- 08 - Dans La Capitale.flac -=- CDDA (100%)
09 -=- 09 - Hommage En Grains.flac -=- CDDA (100%)
10 -=- 10 - Train De Vie (Le Surcheval).flac -=- CDDA (100%)
11 -=- 11 - En Verite.flac -=- CDDA (99%)
12 -=- 12 - Ta Mie T'attend.flac -=- CDDA (100%)
13 -=- 13 - En Famille.flac -=- CDDA (100%)
Summary 99,92% CDDA
147075204
#777Год издания диска: 2006
Издатель (лейбл): Disques Victoire/ DEP
Номер по каталогу: VIC3-3728
Продолжительность: 1:13:06
Источник (релизер): alsaan (what.cd)
Треклист:
01 - La Lettre (3:15)
02 - Dégénérations / Le Reel Du Fossé (5:15)
03 - Nous Sommes (3:51)
04 - Mononcle Prémi (3:37)
05 - La Corrida De La Corriveau (5:38)
06 - Train De Vie (Le Surcheval) (7:02)
07 - L'héritage (5:29)
08 - En Vérité (11:45)
09 - Descendus Au Chantier (7:17)
10 - Remède Miracle (6:31)
11 - Qui Nous Mène? (4:44)
12 - Swigne La Bacaisse (8:42)
Код:
Exact Audio Copy V0.99 prebeta 4 from 23. January 2008
EAC extraction logfile from 29. March 2009, 17:03
Mes Aпeux / Tire-toi Une Bыche
Used drive  : HL-DT-STDVDRAM GH20NS10   Adapter: 3  ID: 0
Read mode               : Secure
Utilize accurate stream : Yes
Defeat audio cache      : Yes
Make use of C2 pointers : No
Read offset correction                      : 667
Overread into Lead-In and Lead-Out          : No
Fill up missing offset samples with silence : Yes
Delete leading and trailing silent blocks   : No
Null samples used in CRC calculations       : Yes
Used interface                              : Native Win32 interface for Win NT & 2000
Gap handling                                : Appended to previous track
Used output format              : User Defined Encoder
Selected bitrate                : 768 kBit/s
Quality                         : High
Add ID3 tag                     : No
Command line compressor         : C:\Program Files\FLAC\flac.exe
Additional command line options : -V -8 -T "artist=%a" -T "title=%t" -T "album=%g" -T "date=%y" -T "tracknumber=%n" %s
TOC of the extracted CD
     Track |   Start  |  Length  | Start sector | End sector
    ---------------------------------------------------------
        1  |  0:00.00 |  3:15.10 |         0    |    14634
        2  |  3:15.10 |  5:14.52 |     14635    |    38236
        3  |  8:29.62 |  3:50.68 |     38237    |    55554
        4  | 12:20.55 |  3:37.37 |     55555    |    71866
        5  | 15:58.17 |  5:38.20 |     71867    |    97236
        6  | 21:36.37 |  7:01.48 |     97237    |   128859
        7  | 28:38.10 |  5:29.27 |    128860    |   153561
        8  | 34:07.37 | 11:44.38 |    153562    |   206399
        9  | 45:52.00 |  7:17.34 |    206400    |   239208
       10  | 53:09.34 |  6:30.66 |    239209    |   268524
       11  | 59:40.25 |  4:44.05 |    268525    |   289829
       12  | 64:24.30 |  8:42.37 |    289830    |   329016
Track  1
     Filename C:\Hi there RIAA, What's up IFPI\Mes Aпeux - Tire-toi Une Bыche\01 - La Lettre.wav
     Pre-gap length  0:00:02.00
     Peak level 99.6 %
     Track quality 100.0 %
     Test CRC 33E70BB5
     Copy CRC 33E70BB5
     Accurately ripped (confidence 6)  [96774276]
     Copy OK
Track  2
     Filename C:\Hi there RIAA, What's up IFPI\Mes Aпeux - Tire-toi Une Bыche\02 - Dйgйnйration , Le Reel Du Fossй.wav
     Pre-gap length  0:00:02.33
     Peak level 99.7 %
     Track quality 100.0 %
     Test CRC E8E62EB8
     Copy CRC E8E62EB8
     Accurately ripped (confidence 5)  [55D83BD2]
     Copy OK
Track  3
     Filename C:\Hi there RIAA, What's up IFPI\Mes Aпeux - Tire-toi Une Bыche\03 - Nous Sommes.wav
     Pre-gap length  0:00:02.26
     Peak level 100.0 %
     Track quality 100.0 %
     Test CRC 34F52540
     Copy CRC 34F52540
     Accurately ripped (confidence 6)  [9F507107]
     Copy OK
Track  4
     Filename C:\Hi there RIAA, What's up IFPI\Mes Aпeux - Tire-toi Une Bыche\04 - Mononcle Prйmi.wav
     Pre-gap length  0:00:01.70
     Peak level 99.7 %
     Track quality 99.9 %
     Test CRC 73E4DE9B
     Copy CRC 73E4DE9B
     Accurately ripped (confidence 6)  [4021D3C2]
     Copy OK
Track  5
     Filename C:\Hi there RIAA, What's up IFPI\Mes Aпeux - Tire-toi Une Bыche\05 - La Corrida De La Corriveau.wav
     Pre-gap length  0:00:03.69
     Peak level 99.7 %
     Track quality 100.0 %
     Test CRC DEF3BD3F
     Copy CRC DEF3BD3F
     Accurately ripped (confidence 6)  [A8AFC6DF]
     Copy OK
Track  6
     Filename C:\Hi there RIAA, What's up IFPI\Mes Aпeux - Tire-toi Une Bыche\06 - Train De Vie (Le Surcheval).wav
     Pre-gap length  0:00:01.73
     Peak level 99.8 %
     Track quality 100.0 %
     Test CRC 1752AA64
     Copy CRC 1752AA64
     Accurately ripped (confidence 6)  [5622C605]
     Copy OK
Track  7
     Filename C:\Hi there RIAA, What's up IFPI\Mes Aпeux - Tire-toi Une Bыche\07 - L'hйritage.wav
     Pre-gap length  0:00:01.57
     Peak level 99.9 %
     Track quality 100.0 %
     Test CRC 5C6F1E38
     Copy CRC 5C6F1E38
     Accurately ripped (confidence 6)  [DB806F60]
     Copy OK
Track  8
     Filename C:\Hi there RIAA, What's up IFPI\Mes Aпeux - Tire-toi Une Bыche\08 - En Vйritй.wav
     Pre-gap length  0:00:02.02
     Peak level 100.0 %
     Track quality 100.0 %
     Test CRC D8EEF1D3
     Copy CRC D8EEF1D3
     Accurately ripped (confidence 6)  [DCF4949F]
     Copy OK
Track  9
     Filename C:\Hi there RIAA, What's up IFPI\Mes Aпeux - Tire-toi Une Bыche\09 - Descendus Au Chantier.wav
     Pre-gap length  0:00:01.84
     Peak level 100.0 %
     Track quality 100.0 %
     Test CRC 680DECC2
     Copy CRC 680DECC2
     Accurately ripped (confidence 6)  [B1D4EB77]
     Copy OK
Track 10
     Filename C:\Hi there RIAA, What's up IFPI\Mes Aпeux - Tire-toi Une Bыche\10 - Remиde Miracle.wav
     Pre-gap length  0:00:01.85
     Peak level 100.0 %
     Track quality 100.0 %
     Test CRC AB2F27FD
     Copy CRC AB2F27FD
     Accurately ripped (confidence 6)  [24945C83]
     Copy OK
Track 11
     Filename C:\Hi there RIAA, What's up IFPI\Mes Aпeux - Tire-toi Une Bыche\11 - Qui Nous Mиne.wav
     Pre-gap length  0:00:01.37
     Peak level 99.6 %
     Track quality 100.0 %
     Test CRC A9C1A1A6
     Copy CRC A9C1A1A6
     Accurately ripped (confidence 6)  [89390DC0]
     Copy OK
Track 12
     Filename C:\Hi there RIAA, What's up IFPI\Mes Aпeux - Tire-toi Une Bыche\12 - Swingne La Bacaisse.wav
     Pre-gap length  0:00:01.66
     Peak level 100.0 %
     Track quality 100.0 %
     Test CRC C5E65060
     Copy CRC C5E65060
     Accurately ripped (confidence 6)  [C65843D1]
     Copy OK
All tracks accurately ripped
No errors occurred
End of status report
Код:
REM DATE 2006
REM DISCID AC11220C
REM COMMENT "ExactAudioCopy v0.99pb4"
PERFORMER "Mes Aïeux"
TITLE "Tire-toi Une Bûche"
FILE "01 - La Lettre.flac" WAVE
  TRACK 01 AUDIO
    TITLE "La Lettre"
    PERFORMER "Mes Aïeux"
    INDEX 01 00:00:00
  TRACK 02 AUDIO
    TITLE "Dégénérations / Le Reel Du Fossé"
    PERFORMER "Mes Aïeux"
    INDEX 00 03:12:60
FILE "02 - Degenerations , Le Reel Du Fosse.flac" WAVE
    INDEX 01 00:00:00
  TRACK 03 AUDIO
    TITLE "Nous Sommes"
    PERFORMER "Mes Aïeux"
    INDEX 00 05:12:32
FILE "03 - Nous Sommes.flac" WAVE
    INDEX 01 00:00:00
  TRACK 04 AUDIO
    TITLE "Mononcle Prémi"
    PERFORMER "Mes Aïeux"
    INDEX 00 03:49:15
FILE "04 - Mononcle Premi.flac" WAVE
    INDEX 01 00:00:00
  TRACK 05 AUDIO
    TITLE "La Corrida De La Corriveau"
    PERFORMER "Mes Aïeux"
    INDEX 00 03:33:60
FILE "05 - La Corrida De La Corriveau.flac" WAVE
    INDEX 01 00:00:00
  TRACK 06 AUDIO
    TITLE "Train De Vie (Le Surcheval)"
    PERFORMER "Mes Aïeux"
    INDEX 00 05:36:40
FILE "06 - Train De Vie (Le Surcheval).flac" WAVE
    INDEX 01 00:00:00
  TRACK 07 AUDIO
    TITLE "L'héritage"
    PERFORMER "Mes Aïeux"
    INDEX 00 07:00:05
FILE "07 - L'heritage.flac" WAVE
    INDEX 01 00:00:00
  TRACK 08 AUDIO
    TITLE "En Vérité"
    PERFORMER "Mes Aïeux"
    INDEX 00 05:27:25
FILE "08 - En Verite.flac" WAVE
    INDEX 01 00:00:00
  TRACK 09 AUDIO
    TITLE "Descendus Au Chantier"
    PERFORMER "Mes Aïeux"
    INDEX 00 11:42:50
FILE "09 - Descendus Au Chantier.flac" WAVE
    INDEX 01 00:00:00
  TRACK 10 AUDIO
    TITLE "Remède Miracle"
    PERFORMER "Mes Aïeux"
    INDEX 00 07:15:45
FILE "10 - Remede Miracle.flac" WAVE
    INDEX 01 00:00:00
  TRACK 11 AUDIO
    TITLE "Qui Nous Mène?"
    PERFORMER "Mes Aïeux"
    INDEX 00 06:29:38
FILE "11 - Qui Nous Mene.flac" WAVE
    INDEX 01 00:00:00
  TRACK 12 AUDIO
    TITLE "Swigne La Bacaisse"
    PERFORMER "Mes Aïeux"
    INDEX 00 04:42:30
FILE "12 - Swigne La Bacaisse.flac" WAVE
    INDEX 01 00:00:00
Код:
AUDIOCHECKER v2.0 beta (build 457) - by Dester - opdester@freemail.hu
~~~~~~~~~~~~~~~~~~~~~~~~~~~~~~~~~~
-=== DO NOT EDIT THIS FILE! ===-
Path: ...\Mes Aieux-[2006]-Tire-toi Une Buche {live}_flac
01 -=- 01 - La Lettre.flac -=- CDDA (100%)
02 -=- 02 - Degenerations , Le Reel Du Fosse.flac -=- CDDA (100%)
03 -=- 03 - Nous Sommes.flac -=- CDDA (100%)
04 -=- 04 - Mononcle Premi.flac -=- CDDA (100%)
05 -=- 05 - La Corrida De La Corriveau.flac -=- CDDA (100%)
06 -=- 06 - Train De Vie (Le Surcheval).flac -=- CDDA (100%)
07 -=- 07 - L'heritage.flac -=- CDDA (100%)
08 -=- 08 - En Verite.flac -=- CDDA (100%)
09 -=- 09 - Descendus Au Chantier.flac -=- CDDA (100%)
10 -=- 10 - Remede Miracle.flac -=- CDDA (100%)
11 -=- 11 - Qui Nous Mene.flac -=- CDDA (100%)
12 -=- 12 - Swigne La Bacaisse.flac -=- CDDA (100%)
Summary 100,00% CDDA
190432884
#777Год издания диска: 2008
Издатель (лейбл): Disques Victoire/ DEP
Номер по каталогу: VIC2-3661
Продолжительность: 1:07:26
Источник (релизер): cyberkid (what.cd)
Треклист:
01 - Le Déni De L'évidence (4:20)
02 - Notre-Dame-Du-Bon-Conseil (4:24)
03 - Chaque Jour (5:05)
04 - Belle, Embarquez (3:38)
05 - La Dévire (4:03)
06 - Antonio (4:17)
07 - Ligne Orange (3:20)
08 - La Grande Tornade (5:03)
09 - Le Stade (Conte Complet) (7:36)
10 - Prière Cathodique (2:19)
11 - La Basse-Cour (3:43)
12 - Count Three (1:52)
13 - Loup Blanc (5:40)
14 - Le Fantôme Du Forum (5:35)
15 - Le Vieux Pont (3:46)
16 - The Great Antonio Sings (2:47)
Код:
Exact Audio Copy V0.99 prebeta 4 from 23. January 2008
EAC extraction logfile from 6. October 2009, 17:38
Mes Aпeux / La Ligne Orange
Used drive  : HL-DT-STDVDRAM GH20NS10   Adapter: 3  ID: 0
Read mode               : Secure
Utilize accurate stream : Yes
Defeat audio cache      : Yes
Make use of C2 pointers : No
Read offset correction                      : 667
Overread into Lead-In and Lead-Out          : No
Fill up missing offset samples with silence : Yes
Delete leading and trailing silent blocks   : No
Null samples used in CRC calculations       : Yes
Used interface                              : Native Win32 interface for Win NT & 2000
Gap handling                                : Appended to previous track
Used output format              : User Defined Encoder
Selected bitrate                : 768 kBit/s
Quality                         : High
Add ID3 tag                     : No
Command line compressor         : C:\Program Files\FLAC\flac.exe
Additional command line options : -V -8 -T "artist=%a" -T "title=%t" -T "album=%g" -T "date=%y" -T "tracknumber=%n" %s
TOC of the extracted CD
     Track |   Start  |  Length  | Start sector | End sector
    ---------------------------------------------------------
        1  |  0:00.00 |  4:19.71 |         0    |    19495
        2  |  4:19.71 |  4:24.18 |     19496    |    39313
        3  |  8:44.14 |  5:04.59 |     39314    |    62172
        4  | 13:48.73 |  3:37.51 |     62173    |    78498
        5  | 17:26.49 |  4:02.40 |     78499    |    96688
        6  | 21:29.14 |  4:16.44 |     96689    |   115932
        7  | 25:45.58 |  3:19.41 |    115933    |   130898
        8  | 29:05.24 |  5:03.32 |    130899    |   153655
        9  | 34:08.56 |  7:35.68 |    153656    |   187848
       10  | 41:44.49 |  2:19.25 |    187849    |   198298
       11  | 44:03.74 |  3:43.15 |    198299    |   215038
       12  | 47:47.14 |  1:51.70 |    215039    |   223433
       13  | 49:39.09 |  5:39.44 |    223434    |   248902
       14  | 55:18.53 |  5:34.68 |    248903    |   274020
       15  | 60:53.46 |  3:45.57 |    274021    |   290952
       16  | 64:39.28 |  2:47.00 |    290953    |   303477
Track  1
     Filename C:\Hi there RIAA, What's up IFPI\Mes Aпeux - La Ligne Orange\01 - Le Dйni De L'йvidence.wav
     Pre-gap length  0:00:02.00
     Peak level 98.8 %
     Track quality 100.0 %
     Test CRC 15EBCBBF
     Copy CRC 15EBCBBF
     Accurately ripped (confidence 9)  [49AFABC0]
     Copy OK
Track  2
     Filename C:\Hi there RIAA, What's up IFPI\Mes Aпeux - La Ligne Orange\02 - Notre-Dame-Du-Bon-Conseil.wav
     Peak level 98.8 %
     Track quality 100.0 %
     Test CRC EA039FAB
     Copy CRC EA039FAB
     Accurately ripped (confidence 9)  [B2E0D703]
     Copy OK
Track  3
     Filename C:\Hi there RIAA, What's up IFPI\Mes Aпeux - La Ligne Orange\03 - Chaque Jour.wav
     Peak level 98.9 %
     Track quality 100.0 %
     Test CRC 7AF8E4F0
     Copy CRC 7AF8E4F0
     Accurately ripped (confidence 9)  [50C416F2]
     Copy OK
Track  4
     Filename C:\Hi there RIAA, What's up IFPI\Mes Aпeux - La Ligne Orange\04 - Belle, Embarquez.wav
     Peak level 98.8 %
     Track quality 100.0 %
     Test CRC 0D795584
     Copy CRC 0D795584
     Accurately ripped (confidence 9)  [375EA199]
     Copy OK
Track  5
     Filename C:\Hi there RIAA, What's up IFPI\Mes Aпeux - La Ligne Orange\05 - La Dйvire.wav
     Peak level 98.8 %
     Track quality 100.0 %
     Test CRC 168D29E6
     Copy CRC 168D29E6
     Accurately ripped (confidence 9)  [C84B031B]
     Copy OK
Track  6
     Filename C:\Hi there RIAA, What's up IFPI\Mes Aпeux - La Ligne Orange\06 - Antonio.wav
     Peak level 98.8 %
     Track quality 100.0 %
     Test CRC 9894D541
     Copy CRC 9894D541
     Accurately ripped (confidence 9)  [EDC4533A]
     Copy OK
Track  7
     Filename C:\Hi there RIAA, What's up IFPI\Mes Aпeux - La Ligne Orange\07 - Ligne Orange.wav
     Peak level 98.8 %
     Track quality 99.9 %
     Test CRC D24DEB78
     Copy CRC D24DEB78
     Accurately ripped (confidence 9)  [A77032E6]
     Copy OK
Track  8
     Filename C:\Hi there RIAA, What's up IFPI\Mes Aпeux - La Ligne Orange\08 - La Grande Tornade.wav
     Peak level 98.8 %
     Track quality 100.0 %
     Test CRC 000926AD
     Copy CRC 000926AD
     Accurately ripped (confidence 9)  [CE853973]
     Copy OK
Track  9
     Filename C:\Hi there RIAA, What's up IFPI\Mes Aпeux - La Ligne Orange\09 - Le Stade (Conte Complet).wav
     Peak level 98.8 %
     Track quality 99.9 %
     Test CRC F3B765CD
     Copy CRC F3B765CD
     Accurately ripped (confidence 9)  [2B8CB203]
     Copy OK
Track 10
     Filename C:\Hi there RIAA, What's up IFPI\Mes Aпeux - La Ligne Orange\10 - Priиre Cathodique.wav
     Peak level 98.8 %
     Track quality 100.0 %
     Test CRC 640E7D33
     Copy CRC 640E7D33
     Accurately ripped (confidence 9)  [CF91A6FB]
     Copy OK
Track 11
     Filename C:\Hi there RIAA, What's up IFPI\Mes Aпeux - La Ligne Orange\11 - La Basse-Cour.wav
     Peak level 98.9 %
     Track quality 100.0 %
     Test CRC 5CDBF7AB
     Copy CRC 5CDBF7AB
     Accurately ripped (confidence 9)  [38C20228]
     Copy OK
Track 12
     Filename C:\Hi there RIAA, What's up IFPI\Mes Aпeux - La Ligne Orange\12 - Count Three.wav
     Peak level 98.8 %
     Track quality 99.9 %
     Test CRC B05CD932
     Copy CRC B05CD932
     Accurately ripped (confidence 9)  [8204E406]
     Copy OK
Track 13
     Filename C:\Hi there RIAA, What's up IFPI\Mes Aпeux - La Ligne Orange\13 - Loup Blanc.wav
     Peak level 98.8 %
     Track quality 100.0 %
     Test CRC 5A70D753
     Copy CRC 5A70D753
     Accurately ripped (confidence 9)  [1F46B6C8]
     Copy OK
Track 14
     Filename C:\Hi there RIAA, What's up IFPI\Mes Aпeux - La Ligne Orange\14 - Le Fantфme Du Forum.wav
     Peak level 98.8 %
     Track quality 100.0 %
     Test CRC 562615B5
     Copy CRC 562615B5
     Accurately ripped (confidence 8)  [353EC9E3]
     Copy OK
Track 15
     Filename C:\Hi there RIAA, What's up IFPI\Mes Aпeux - La Ligne Orange\15 - Le Vieux Pont.wav
     Peak level 98.8 %
     Track quality 100.0 %
     Test CRC 738866DE
     Copy CRC 738866DE
     Accurately ripped (confidence 9)  [B917D760]
     Copy OK
Track 16
     Filename C:\Hi there RIAA, What's up IFPI\Mes Aпeux - La Ligne Orange\16 - The Great Antonio Sings.wav
     Peak level 98.8 %
     Track quality 100.0 %
     Test CRC 3E82B0B0
     Copy CRC 3E82B0B0
     Accurately ripped (confidence 9)  [6EE39414]
     Copy OK
All tracks accurately ripped
No errors occurred
End of status report
Код:
REM DATE 2008
REM DISCID E20FCE10
REM COMMENT "ExactAudioCopy v0.99pb4"
PERFORMER "Mes Aïeux"
TITLE "La Ligne Orange"
FILE "01 - Le Deni De L'evidence.flac" WAVE
  TRACK 01 AUDIO
    TITLE "Le Déni De L'évidence"
    PERFORMER "Mes Aïeux"
    INDEX 01 00:00:00
FILE "02 - Notre-Dame-Du-Bon-Conseil.flac" WAVE
  TRACK 02 AUDIO
    TITLE "Notre-Dame-Du-Bon-Conseil"
    PERFORMER "Mes Aïeux"
    INDEX 01 00:00:00
FILE "03 - Chaque Jour.flac" WAVE
  TRACK 03 AUDIO
    TITLE "Chaque Jour"
    PERFORMER "Mes Aïeux"
    INDEX 01 00:00:00
FILE "04 - Belle, Embarquez.flac" WAVE
  TRACK 04 AUDIO
    TITLE "Belle, Embarquez"
    PERFORMER "Mes Aïeux"
    INDEX 01 00:00:00
FILE "05 - La Devire.flac" WAVE
  TRACK 05 AUDIO
    TITLE "La Dévire"
    PERFORMER "Mes Aïeux"
    INDEX 01 00:00:00
FILE "06 - Antonio.flac" WAVE
  TRACK 06 AUDIO
    TITLE "Antonio"
    PERFORMER "Mes Aïeux"
    INDEX 01 00:00:00
FILE "07 - Ligne Orange.flac" WAVE
  TRACK 07 AUDIO
    TITLE "Ligne Orange"
    PERFORMER "Mes Aïeux"
    INDEX 01 00:00:00
FILE "08 - La Grande Tornade.flac" WAVE
  TRACK 08 AUDIO
    TITLE "La Grande Tornade"
    PERFORMER "Mes Aïeux"
    INDEX 01 00:00:00
FILE "09 - Le Stade (Conte Complet).flac" WAVE
  TRACK 09 AUDIO
    TITLE "Le Stade (Conte Complet)"
    PERFORMER "Mes Aïeux"
    INDEX 01 00:00:00
FILE "10 - Priere Cathodique.flac" WAVE
  TRACK 10 AUDIO
    TITLE "Prière Cathodique"
    PERFORMER "Mes Aïeux"
    INDEX 01 00:00:00
FILE "11 - La Basse-Cour.flac" WAVE
  TRACK 11 AUDIO
    TITLE "La Basse-Cour"
    PERFORMER "Mes Aïeux"
    INDEX 01 00:00:00
FILE "12 - Count Three.flac" WAVE
  TRACK 12 AUDIO
    TITLE "Count Three"
    PERFORMER "Mes Aïeux"
    INDEX 01 00:00:00
FILE "13 - Loup Blanc.flac" WAVE
  TRACK 13 AUDIO
    TITLE "Loup Blanc"
    PERFORMER "Mes Aïeux"
    INDEX 01 00:00:00
FILE "14 - Le Fantome Du Forum.flac" WAVE
  TRACK 14 AUDIO
    TITLE "Le Fantôme Du Forum"
    PERFORMER "Mes Aïeux"
    INDEX 01 00:00:00
FILE "15 - Le Vieux Pont.flac" WAVE
  TRACK 15 AUDIO
    TITLE "Le Vieux Pont"
    PERFORMER "Mes Aïeux"
    INDEX 01 00:00:00
FILE "16 - The Great Antonio Sings.flac" WAVE
  TRACK 16 AUDIO
    TITLE "The Great Antonio Sings"
    PERFORMER "Mes Aïeux"
    INDEX 01 00:00:00
Код:
AUDIOCHECKER v2.0 beta (build 457) - by Dester - opdester@freemail.hu
~~~~~~~~~~~~~~~~~~~~~~~~~~~~~~~~~~
-=== DO NOT EDIT THIS FILE! ===-
Path: ...\Mes Aieux-[2008]-La Ligne Orange_flac
01 -=- 01 - Le Deni De L'evidence.flac -=- CDDA (100%)
02 -=- 02 - Notre-Dame-Du-Bon-Conseil.flac -=- CDDA (99%)
03 -=- 03 - Chaque Jour.flac -=- CDDA (99%)
04 -=- 04 - Belle, Embarquez.flac -=- CDDA (100%)
05 -=- 05 - La Devire.flac -=- CDDA (99%)
06 -=- 06 - Antonio.flac -=- CDDA (100%)
07 -=- 07 - Ligne Orange.flac -=- CDDA (100%)
08 -=- 08 - La Grande Tornade.flac -=- CDDA (100%)
09 -=- 09 - Le Stade (Conte Complet).flac -=- CDDA (99%)
10 -=- 10 - Priere Cathodique.flac -=- CDDA (99%)
11 -=- 11 - La Basse-Cour.flac -=- CDDA (99%)
12 -=- 12 - Count Three.flac -=- CDDA (100%)
13 -=- 13 - Loup Blanc.flac -=- CDDA (100%)
14 -=- 14 - Le Fantome Du Forum.flac -=- CDDA (100%)
15 -=- 15 - Le Vieux Pont.flac -=- CDDA (100%)
16 -=- 16 - The Great Antonio Sings.flac -=- CDDA (100%)
Summary 99,63% CDDA
50805812



#777Если вы скачивали один альбом "La Ligne Orange", то можете создать папку с названием "Mes Aieux - Дискография (00-08)_flac" и переместить скачанный альбом туда, чтобы не пришлось download`ить лишние 449mb.
Mes Aïeux (мои предки) - Квебекская группа, образовалась в 1996 году. Исполняют народную квебекскую музыку. Лидер нео-традиционалистского музыкального движения в Квебеке.
Правила, инструкции, FAQ!!!
Торрент  Добавлен [01 янв 2020, 22:45] Скачать торрент Магнет ссылка
Скачать торрент
[ Размер 19.38 КБ / Просмотров 3 ]

Статус
Проверен 
 
Размер  2 ГБ
Приватный: Нет (DHT включён)
.torrent скачан  0
 


     Отправить личное сообщение
   
Страница 1 из 1
Показать сообщения за:  Поле сортировки  
Начать новую тему Ответить на тему


Сейчас этот форум просматривают: нет зарегистрированных пользователей и гости: 0


Вы не можете начинать темы
Вы не можете отвечать на сообщения
Вы не можете редактировать свои сообщения
Вы не можете удалять свои сообщения
Вы не можете добавлять вложения

Перейти:  
cron