Начать новую тему Ответить на тему
Статистика раздачи
Размер: 292.53 МБ | Добавлен: 01 янв 2020, 23:03 | Скачали: 0
Сидеров: 0  [0 байт/сек]    Личеров: 0  [0 байт/сек]
Пред. тема | След. тема 

Автор
Сообщение

СообщениеДобавлено: 01 янв 2020, 23:03 

Ответить с цитатой 

Louis Capart & Duo Balance / Voyage
Жанр: Chanson, Folk, Pop
Страна-производитель диска: Germany
Год издания: 2008
Издатель (лейбл): Stockfisch Records
Номер по каталогу: SFR 357.4043.2
Страна: France, Germany
Аудиокодек: APE (*.ape)
Тип рипа: image+.cue
Битрейт аудио: lossless
Продолжительность: 00:54:15
Источник (релизер): avax
Наличие сканов в содержимом раздачи: нет
Треклист:
01. Au large du Gueveur
02. Floraison
03. Il faudra que je me souvienne
04. Marie-Jeanne-Gabrielle
05. Berlin
06. Maintenant ou jamais
07. Gottingen
08. Cette chanson qui ne vient jamais
09. Loguivy de la mer
10. Differents mais tous pareils
11. Le Present tetu
12. Patience
13. Au large du Gueveur - Reprise
Код:
Exact Audio Copy V1.0 beta 2 from 29. April 2011
EAC extraction logfile from 29. March 2012, 20:47
Louis Capart & Duo Balance / Voyage
Used drive  : PIONEER BD-RW   BDR-206   Adapter: 2  ID: 3
Read mode               : Secure
Utilize accurate stream : Yes
Defeat audio cache      : Yes
Make use of C2 pointers : No
Read offset correction                      : 667
Overread into Lead-In and Lead-Out          : No
Fill up missing offset samples with silence : Yes
Delete leading and trailing silent blocks   : No
Null samples used in CRC calculations       : Yes
Used interface                              : Native Win32 interface for Win NT & 2000
Used output format              : User Defined Encoder
Selected bitrate                : 896 kBit/s
Quality                         : High
Add ID3 tag                     : No
Command line compressor         : C:\Program Files\FLAC\flac.exe
Additional command line options : -5 -T "Artist=%artist%" -T "Title=%title%" -T "Album=%albumtitle%" -T "Date=%year%" -T "Tracknumber=%tracknr%" -T "Genre=%genre%" %source% -o %dest%
TOC of the extracted CD
     Track |   Start  |  Length  | Start sector | End sector
    ---------------------------------------------------------
        1  |  0:00.00 |  5:17.22 |         0    |    23796
        2  |  5:17.22 |  3:59.25 |     23797    |    41746
        3  |  9:16.47 |  3:11.00 |     41747    |    56071
        4  | 12:27.47 |  5:07.63 |     56072    |    79159
        5  | 17:35.35 |  5:10.60 |     79160    |   102469
        6  | 22:46.20 |  2:11.02 |    102470    |   112296
        7  | 24:57.22 |  2:46.58 |    112297    |   124804
        8  | 27:44.05 |  3:12.07 |    124805    |   139211
        9  | 30:56.12 |  3:29.25 |    139212    |   154911
       10  | 34:25.37 |  4:50.46 |    154912    |   176707
       11  | 39:16.08 |  3:38.25 |    176708    |   193082
       12  | 42:54.33 |  4:38.10 |    193083    |   213942
       13  | 47:32.43 |  6:43.00 |    213943    |   244167
Range status and errors
Selected range
     Filename I:\=== VINYL RIPS ===\=== EAC===\X FRESH RIP\Louis Capart & Duo Balance - Voyage.wav
     Peak level 94.4 %
     Extraction speed 7.3 X
     Range quality 99.9 %
     Test CRC 39C8BC10
     Copy CRC 39C8BC10
     Copy OK
No errors occurred
AccurateRip summary
Track  1  accurately ripped (confidence 3)  [8F7C5EA0]  (AR v2)
Track  2  accurately ripped (confidence 3)  [7C867FA9]  (AR v2)
Track  3  accurately ripped (confidence 3)  [6AB4BD65]  (AR v2)
Track  4  accurately ripped (confidence 3)  [3DD931B8]  (AR v2)
Track  5  accurately ripped (confidence 3)  [14B2F228]  (AR v2)
Track  6  accurately ripped (confidence 3)  [0A11A997]  (AR v2)
Track  7  accurately ripped (confidence 3)  [01486986]  (AR v2)
Track  8  accurately ripped (confidence 3)  [7F02351F]  (AR v2)
Track  9  accurately ripped (confidence 3)  [A7ADEF90]  (AR v2)
Track 10  accurately ripped (confidence 3)  [DE92CE49]  (AR v2)
Track 11  accurately ripped (confidence 3)  [620827AE]  (AR v2)
Track 12  accurately ripped (confidence 3)  [F2830366]  (AR v2)
Track 13  accurately ripped (confidence 3)  [88ABCE2F]  (AR v2)
All tracks accurately ripped
End of status report
==== Log checksum AABAB451291E0A7C4513F565C584DCC75A1A9F96192EAFA2C215348C6A485740 ====
Код:
-----------------------
DON'T MODIFY THIS FILE
-----------------------
PERFORMER: auCDtect Task Manager, ver. 1.5.1RC6 build 1.5.1.7
Copyright (c) 2008-2010 y-soft. All rights reserved
[url=http://y-soft.org]http://y-soft.org[/url]
ANALYZER: auCDtect: CD records authenticity detector, version 0.8.2
Copyright (c) 2004 Oleg Berngardt. All rights reserved.
Copyright (c) 2004 Alexander Djourik. All rights reserved.
FILE: Louis Capart & Duo Balance - Voyage.flac
  Size: 326589606 Hash: 0004BEE03F4800419BDF28EE83083F08 Accuracy: -m0
  Conclusion: CDDA 100%
  Signature: 66F66C5ECD5492C993CBDB4DEFA09E496D195D94
Vocal & Guitar - Louis Capart
Vocal - Christine Maringer-Tries
Vocal & Guitar - Hans-Peter Tries
Concert Harp - Johanna Single
Flugelhorn - Iris Kramer
Accordion - Hrolfur Vagnsson
Flute - Ian Melrose
Guitar - Dominik Jung
Upright Bass - Thomas Biller
Fretless Bass - Hans-Jörg Maucksch
Правила, инструкции, FAQ!!!
Торрент  Добавлен [01 янв 2020, 23:03] Скачать торрент Магнет ссылка
Скачать торрент
[ Размер 12.16 КБ / Просмотров 3 ]

Статус
Проверен 
 
Размер  292.53 МБ
Приватный: Нет (DHT включён)
.torrent скачан  0
 


     Отправить личное сообщение
   
Страница 1 из 1
Показать сообщения за:  Поле сортировки  
Начать новую тему Ответить на тему


Сейчас этот форум просматривают: нет зарегистрированных пользователей и гости: 0


Вы не можете начинать темы
Вы не можете отвечать на сообщения
Вы не можете редактировать свои сообщения
Вы не можете удалять свои сообщения
Вы не можете добавлять вложения

Перейти:  
cron