Начать новую тему Ответить на тему
Статистика раздачи
Размер: 473.03 МБ | Добавлен: 01 янв 2020, 22:51 | Скачали: 0
Сидеров: 0  [0 байт/сек]    Личеров: 0  [0 байт/сек]
Пред. тема | След. тема 

Автор
Сообщение

СообщениеДобавлено: 01 янв 2020, 22:51 

Ответить с цитатой 

Jessica Fichot / 2 альбома 2007, 2012 годов
Жанр: chanson, folk pop
Страна-производитель диска: France
Год издания: 2007, 2012
Издатель (лейбл): Jessica Fichot
Аудиокодек: FLAC (*.flac)
Тип рипа: image+.cue & tracks+.cue
Битрейт аудио: lossless
Продолжительность: 1:11:09
Источник (релизер): Диски из личной фонотеки
Наличие сканов в содержимом раздачи: нет
ofsite: http://www.jessicasongs.com/

Треклист:
01. Le Grenier [0:03:37.04]
02. 1,2,3 [0:03:14.67]
03. Le Velours et la Soie [0:04:22.05]
04. Si... [0:03:18.50]
05. Los Peces en el Rio [0:03:32.00]
06. I Will Wait for You [0:03:59.55]
07. Je Sais Qu'Tu M'aimes [0:03:18.74]
08. Dream / les Yeux Ouverts [0:03:07.27]
Код:
Exact Audio Copy V0.99 prebeta 5 from 4. May 2009
EAC extraction logfile from 20. August 2010, 15:33
Jessica Fichot / Le Chemin
Used drive  : ASUS    CRW-5232AX   Adapter: 4  ID: 1
Read mode               : Secure
Utilize accurate stream : Yes
Defeat audio cache      : Yes
Make use of C2 pointers : No
Read offset correction                      : 6
Overread into Lead-In and Lead-Out          : No
Fill up missing offset samples with silence : Yes
Delete leading and trailing silent blocks   : No
Null samples used in CRC calculations       : Yes
Used interface                              : Native Win32 interface for Win NT & 2000
Used output format              : User Defined Encoder
Selected bitrate                : 896 kBit/s
Quality                         : High
Add ID3 tag                     : No
Command line compressor         : C:\Program Files\Exact Audio Copy\FLAC\FLAC.EXE
Additional command line options : -8 -V -T "ARTIST=%a" -T "TITLE=%t" -T "ALBUM=%g" -T "DATE=%y" -T "TRACKNUMBER=%n" -T "TOTALTRACKS=%x" -T "GENRE=%m" -T "ALBUMARTIST=%v" -T "ALBUM ARTIST=%v" -T "COMMENT=EAC Secure Mode, Test & Copy, AccurateRip, FLAC -8" %s
TOC of the extracted CD
     Track |   Start  |  Length  | Start sector | End sector
    ---------------------------------------------------------
        1  |  0:00.00 |  3:37.04 |         0    |    16278
        2  |  3:37.04 |  3:14.67 |     16279    |    30895
        3  |  6:51.71 |  4:22.05 |     30896    |    50550
        4  | 11:14.01 |  3:18.50 |     50551    |    65450
        5  | 14:32.51 |  3:32.00 |     65451    |    81350
        6  | 18:04.51 |  3:59.55 |     81351    |    99330
        7  | 22:04.31 |  3:18.74 |     99331    |   114254
        8  | 25:23.30 |  3:07.27 |    114255    |   128306
        9  | 28:30.57 |  3:24.73 |    128307    |   143679
Range status and errors
Selected range
     Filename D:\TMP_MUSIC\Jessica Fichot - Le Chemin (2007) HQShare by egotrsh\Jessica Fichot - Le Chemin.wav
     Peak level 97.7 %
     Range quality 100.0 %
     Test CRC B4744385
     Copy CRC B4744385
     Copy OK
No errors occurred
AccurateRip summary
Track  1  accurately ripped (confidence 3)  [74F1C11B]
Track  2  accurately ripped (confidence 3)  [2853058B]
Track  3  accurately ripped (confidence 3)  [6F967CB7]
Track  4  accurately ripped (confidence 3)  [44678F71]
Track  5  accurately ripped (confidence 3)  [1F030506]
Track  6  accurately ripped (confidence 3)  [9927CB77]
Track  7  accurately ripped (confidence 3)  [10A625D2]
Track  8  accurately ripped (confidence 2)  [502A519A]
Track  9  accurately ripped (confidence 2)  [C4470DFC]
All tracks accurately ripped
End of status report
Треклист:
01. La Route M'appelle [0:03:41.01]
02. Berceuse Bancale [0:03:00.74]
03. Le Secret [0:03:13.67]
04. Shanghai [0:03:32.23]
05. Bonne Chance [0:03:23.10]
06. Luz de Luna [0:02:42.13]
07. La Spectatrice [0:04:16.61]
08. Il Ne Reste Plus Rien [0:03:20.55]
09. Dans le Mйtro [0:03:22.37]
10. Une [0:03:13.22]
11. Bang Bang [0:02:24.43]
12. Comme Cassandre [0:03:01.74]
Код:
Exact Audio Copy V1.0 beta 3 from 29. August 2011
EAC extraction logfile from 30. June 2012, 23:07
Jessica Fichot / Le Secret
Used drive  : HL-DT-STDVDRAM GSA-H10N   Adapter: 4  ID: 0
Read mode               : Secure
Utilize accurate stream : Yes
Defeat audio cache      : Yes
Make use of C2 pointers : No
Read offset correction                      : 667
Overread into Lead-In and Lead-Out          : No
Fill up missing offset samples with silence : Yes
Delete leading and trailing silent blocks   : No
Null samples used in CRC calculations       : Yes
Used interface                              : Native Win32 interface for Win NT & 2000
Gap handling                                : Appended to previous track
Used output format              : User Defined Encoder
Selected bitrate                : 768 kBit/s
Quality                         : High
Add ID3 tag                     : Yes
Command line compressor         : C:\Program Files\Exact Audio Copy\FLAC\FLAC.EXE
Additional command line options : -8 -V -T "ARTIST=%artist%" -T "TITLE=%title%" -T "ALBUM=%albumtitle%" -T "DATE=%year%" -T "TRACKNUMBER=%tracknr%" -T "GENRE=%genre%" -T "COMMENT=%comment%" %hascover%--picture="%coverfile%"%hascover% %source% -o %dest%
TOC of the extracted CD
     Track |   Start  |  Length  | Start sector | End sector
    ---------------------------------------------------------
        1  |  0:00.00 |  3:41.01 |         0    |    16575
        2  |  3:41.01 |  3:00.74 |     16576    |    30149
        3  |  6:42.00 |  3:13.67 |     30150    |    44691
        4  |  9:55.67 |  3:32.23 |     44692    |    60614
        5  | 13:28.15 |  3:23.10 |     60615    |    75849
        6  | 16:51.25 |  2:42.13 |     75850    |    88012
        7  | 19:33.38 |  4:16.61 |     88013    |   107273
        8  | 23:50.24 |  3:20.55 |    107274    |   122328
        9  | 27:11.04 |  3:22.37 |    122329    |   137515
       10  | 30:33.41 |  3:13.22 |    137516    |   152012
       11  | 33:46.63 |  2:24.43 |    152013    |   162855
       12  | 36:11.31 |  3:01.74 |    162856    |   176504
Track  1
     Filename D:\TMP_MUSIC\Jessica Fichot - Le Secret (2012) by egotex\01 - La Route M'appelle.wav
     Pre-gap length  0:00:02.00
     Peak level 97.7 %
     Extraction speed 4.4 X
     Track quality 100.0 %
     Test CRC 39F138B9
     Copy CRC 39F138B9
     Track not present in AccurateRip database
     Copy OK
Track  2
     Filename D:\TMP_MUSIC\Jessica Fichot - Le Secret (2012) by egotex\02 - Berceuse Bancale.wav
     Peak level 97.7 %
     Extraction speed 4.7 X
     Track quality 100.0 %
     Test CRC 0F1D1A0C
     Copy CRC 0F1D1A0C
     Track not present in AccurateRip database
     Copy OK
Track  3
     Filename D:\TMP_MUSIC\Jessica Fichot - Le Secret (2012) by egotex\03 - Le Secret.wav
     Peak level 97.7 %
     Extraction speed 4.0 X
     Track quality 99.9 %
     Test CRC E1781BB8
     Copy CRC E1781BB8
     Track not present in AccurateRip database
     Copy OK
Track  4
     Filename D:\TMP_MUSIC\Jessica Fichot - Le Secret (2012) by egotex\04 - Shanghai.wav
     Peak level 94.2 %
     Extraction speed 5.6 X
     Track quality 100.0 %
     Test CRC 57E0ECB0
     Copy CRC 57E0ECB0
     Track not present in AccurateRip database
     Copy OK
Track  5
     Filename D:\TMP_MUSIC\Jessica Fichot - Le Secret (2012) by egotex\05 - Bonne Chance.wav
     Peak level 97.7 %
     Extraction speed 5.7 X
     Track quality 100.0 %
     Test CRC F099250B
     Copy CRC F099250B
     Track not present in AccurateRip database
     Copy OK
Track  6
     Filename D:\TMP_MUSIC\Jessica Fichot - Le Secret (2012) by egotex\06 - Luz de Luna.wav
     Peak level 94.2 %
     Extraction speed 5.9 X
     Track quality 100.0 %
     Test CRC 43777B10
     Copy CRC 43777B10
     Track not present in AccurateRip database
     Copy OK
Track  7
     Filename D:\TMP_MUSIC\Jessica Fichot - Le Secret (2012) by egotex\07 - La Spectatrice.wav
     Peak level 94.2 %
     Extraction speed 6.5 X
     Track quality 100.0 %
     Test CRC B16E91BC
     Copy CRC B16E91BC
     Track not present in AccurateRip database
     Copy OK
Track  8
     Filename D:\TMP_MUSIC\Jessica Fichot - Le Secret (2012) by egotex\08 - Il Ne Reste Plus Rien.wav
     Peak level 97.7 %
     Extraction speed 6.5 X
     Track quality 100.0 %
     Test CRC A8B45C8B
     Copy CRC A8B45C8B
     Track not present in AccurateRip database
     Copy OK
Track  9
     Filename D:\TMP_MUSIC\Jessica Fichot - Le Secret (2012) by egotex\09 - Dans le Mйtro.wav
     Peak level 96.4 %
     Extraction speed 5.5 X
     Track quality 99.9 %
     Test CRC E82720BE
     Copy CRC E82720BE
     Track not present in AccurateRip database
     Copy OK
Track 10
     Filename D:\TMP_MUSIC\Jessica Fichot - Le Secret (2012) by egotex\10 - Une.wav
     Peak level 96.6 %
     Extraction speed 7.1 X
     Track quality 100.0 %
     Test CRC 655562E1
     Copy CRC 655562E1
     Track not present in AccurateRip database
     Copy OK
Track 11
     Filename D:\TMP_MUSIC\Jessica Fichot - Le Secret (2012) by egotex\11 - Bang Bang.wav
     Peak level 95.1 %
     Extraction speed 6.9 X
     Track quality 100.0 %
     Test CRC C1CD29C8
     Copy CRC C1CD29C8
     Track not present in AccurateRip database
     Copy OK
Track 12
     Filename D:\TMP_MUSIC\Jessica Fichot - Le Secret (2012) by egotex\12 - Comme Cassandre.wav
     Peak level 97.7 %
     Extraction speed 7.3 X
     Track quality 100.0 %
     Test CRC 066791C2
     Copy CRC 066791C2
     Track not present in AccurateRip database
     Copy OK
None of the tracks are present in the AccurateRip database
No errors occurred
End of status report
---- CUETools DB Plugin V2.1.3
[CTDB TOCID: IWpOF.nZYyDMHjGXvJmW_s_qaQA-] disk not present in database, Submit result: IWpOF.nZYyDMHjGXvJmW_s_qaQA- has been uploaded
==== Log checksum 20BAB56756BBAC37C2D3FEAC2376749FD9D3CBAF2287272BEB0D96E80A1A043E ====
Код:
REM GENRE Folk
REM DATE 2012
REM DISCID 8309310C
REM COMMENT "ExactAudioCopy v1.0b3"
PERFORMER "Jessica Fichot"
TITLE "Le Secret"
FILE "01 - La Route M'appelle.wav" WAVE
  TRACK 01 AUDIO
    TITLE "La Route M'appelle"
    PERFORMER "Jessica Fichot"
    INDEX 01 00:00:00
FILE "02 - Berceuse Bancale.wav" WAVE
  TRACK 02 AUDIO
    TITLE "Berceuse Bancale"
    PERFORMER "Jessica Fichot"
    INDEX 01 00:00:00
FILE "03 - Le Secret.wav" WAVE
  TRACK 03 AUDIO
    TITLE "Le Secret"
    PERFORMER "Jessica Fichot"
    INDEX 01 00:00:00
FILE "04 - Shanghai.wav" WAVE
  TRACK 04 AUDIO
    TITLE "Shanghai"
    PERFORMER "Jessica Fichot"
    INDEX 01 00:00:00
FILE "05 - Bonne Chance.wav" WAVE
  TRACK 05 AUDIO
    TITLE "Bonne Chance"
    PERFORMER "Jessica Fichot"
    INDEX 01 00:00:00
FILE "06 - Luz de Luna.wav" WAVE
  TRACK 06 AUDIO
    TITLE "Luz de Luna"
    PERFORMER "Jessica Fichot"
    INDEX 01 00:00:00
FILE "07 - La Spectatrice.wav" WAVE
  TRACK 07 AUDIO
    TITLE "La Spectatrice"
    PERFORMER "Jessica Fichot"
    INDEX 01 00:00:00
FILE "08 - Il Ne Reste Plus Rien.wav" WAVE
  TRACK 08 AUDIO
    TITLE "Il Ne Reste Plus Rien"
    PERFORMER "Jessica Fichot"
    INDEX 01 00:00:00
FILE "09 - Dans le Mйtro.wav" WAVE
  TRACK 09 AUDIO
    TITLE "Dans le Mйtro"
    PERFORMER "Jessica Fichot"
    INDEX 01 00:00:00
FILE "10 - Une.wav" WAVE
  TRACK 10 AUDIO
    TITLE "Une"
    PERFORMER "Jessica Fichot"
    INDEX 01 00:00:00
FILE "11 - Bang Bang.wav" WAVE
  TRACK 11 AUDIO
    TITLE "Bang Bang"
    PERFORMER "Jessica Fichot"
    INDEX 01 00:00:00
FILE "12 - Comme Cassandre.wav" WAVE
  TRACK 12 AUDIO
    TITLE "Comme Cassandre"
    PERFORMER "Jessica Fichot"
    INDEX 01 00:00:00
Правила, инструкции, FAQ!!!
Торрент  Добавлен [01 янв 2020, 22:51] Скачать торрент Магнет ссылка
Скачать торрент
[ Размер 20.87 КБ / Просмотров 0 ]

Статус
Проверен 
 
Размер  473.03 МБ
Приватный: Нет (DHT включён)
.torrent скачан  0
 


     Отправить личное сообщение
   
Страница 1 из 1
Показать сообщения за:  Поле сортировки  
Начать новую тему Ответить на тему


Сейчас этот форум просматривают: нет зарегистрированных пользователей и гости: 0


Вы не можете начинать темы
Вы не можете отвечать на сообщения
Вы не можете редактировать свои сообщения
Вы не можете удалять свои сообщения
Вы не можете добавлять вложения

Перейти:  
cron