Начать новую тему Ответить на тему
Статистика раздачи
Размер: 298.01 МБ | Добавлен: 01 янв 2020, 23:05 | Скачали: 0
Сидеров: 0  [0 байт/сек]    Личеров: 0  [0 байт/сек]
Пред. тема | След. тема 

Автор
Сообщение

СообщениеДобавлено: 01 янв 2020, 23:05 

Ответить с цитатой 

Fernandel - FERNANDEL 1931-1948 (2 CD)


Жанр: Chanson
Год выпуска диска: 1999.04.29
Производитель диска: France
Label : Fremeaux & Associes
Аудио кодек: FLAC
Тип рипа: image+.cue + scans
Битрейт аудио: lossless
Продолжительность: 1:44:58
Источник: Диск из личной коллекции

Disc 1

01 La caissière du Grand...
02 Moi, je vais au cinéma
03 Fôlatrerie
04 Lui et moi
05 Aventure galante
06 Mimile et Totor
07 Milliardaire
08 J'ai des tout p'tits...
09 Ignace
10 Lequel des deux
11 Redis-le me
12 Je vais au zoo avec zizi
13 Je te veux (avec...
14 Ne me dis plus tu
15 Barnabé
16 Si je jouais du trombone
17 L'amour incompris
18 Scène de l'audition

Disc 2
01 Ernestito
02 Ma créole
03 C'est comme ça à Calcutta
04 Je suis une petite nature
05 Un dur, un vrai, un...
06 Félicie aussi
07 Hector
08 Moi je mâhce du chewing...
09 Je connais des baisers
10 Les jours sans
11 On m'appelle Simplet
12 Je n'peux pas m'expliquer
13 Faut pas bouder Bouddha!
14 C'est un dur
15 Nono et Nana
16 Je suis marqué par le...
17 Dans la brousse
18 Sur le bout de la...
Код:
Exact Audio Copy V0.99 prebeta 4 from 23. January 2008
Отчёт EAC об извлечении, выполненном 26. сентября 2009, 2:48
Fernandel / FERNANDEL 1931 - 1948 Disc 1
Дисковод: PIONEER DVD-RW  DVR-212   Adapter: 7  ID: 0
Режим чтения                 : Достоверность
Использование точного потока : Да
Отключение кэша аудио        : Да
Использование указателей C2  : Нет
Коррекция смещения при чтении                     : 48
Способность читать области Lead-in и Lead-out     : Нет
Заполнение пропущенных сэмплов тишиной            : Да
Удаление блоков с тишиной в начале и конце        : Нет
При вычислениях CRC использовались нулевые сэмплы : Да
Интерфейс                                         : Установленный внешний ASPI-интерфейс
Выходной формат : Внутренние WAV-операции
Формат сэмплов  : 44.100 Гц; 16 бит; стерео
TOC извлечённого CD
     Трек |   Старт  | Длительность | Начальный сектор | Конечный сектор
    ---------------------------------------------------------------------
       1  |  0:00.00 |    3:48.01   |           0      |      17100
       2  |  3:48.01 |    2:52.61   |       17101      |      30061
       3  |  6:40.62 |    3:08.53   |       30062      |      44214
       4  |  9:49.40 |    3:07.44   |       44215      |      58283
       5  | 12:57.09 |    3:29.18   |       58284      |      73976
       6  | 16:26.27 |    2:38.22   |       73977      |      85848
       7  | 19:04.49 |    2:37.23   |       85849      |      97646
       8  | 21:41.72 |    2:58.66   |       97647      |     111062
       9  | 24:40.63 |    2:05.45   |      111063      |     120482
      10  | 26:46.33 |    3:08.17   |      120483      |     134599
      11  | 29:54.50 |    3:08.07   |      134600      |     148706
      12  | 33:02.57 |    3:15.73   |      148707      |     163404
      13  | 36:18.55 |    2:51.63   |      163405      |     176292
      14  | 39:10.43 |    2:30.30   |      176293      |     187572
      15  | 41:40.73 |    2:35.61   |      187573      |     199258
      16  | 44:16.59 |    2:55.60   |      199259      |     212443
      17  | 47:12.44 |    3:25.55   |      212444      |     227873
      18  | 50:38.24 |    2:36.65   |      227874      |     239638
Характеристики диапазона извлечения и сообщения об ошибках
Выбранный диапазон
     Имя файла B:\MP 3\France Chanson\Fernandel\Fernandel 1931 - 1948 (2 CD) (FLAC)\Disc 1\Fernandel - FERNANDEL 1931 - 1948 Disc 1.wav
     Пиковый уровень 86.0 %
     Качество диапазона 100.0 %
     CRC копии 9727FC1A
     Копирование... OK
Ошибок не произошло
AccurateRip: сводка
Трек  1  нет в базе данных
Трек  2  нет в базе данных
Трек  3  нет в базе данных
Трек  4  нет в базе данных
Трек  5  нет в базе данных
Трек  6  нет в базе данных
Трек  7  нет в базе данных
Трек  8  нет в базе данных
Трек  9  нет в базе данных
Трек 10  нет в базе данных
Трек 11  нет в базе данных
Трек 12  нет в базе данных
Трек 13  нет в базе данных
Трек 14  нет в базе данных
Трек 15  нет в базе данных
Трек 16  нет в базе данных
Трек 17  нет в базе данных
Трек 18  нет в базе данных
Ни одного трека нет в базе AccurateRip
Конец отчёта
Код:
Exact Audio Copy V0.99 prebeta 4 from 23. January 2008
Отчёт EAC об извлечении, выполненном 26. сентября 2009, 3:11
Fernandel / FERNANDEL 1931 - 1948 [Disc 2]
Дисковод: PIONEER DVD-RW  DVR-212   Adapter: 7  ID: 0
Режим чтения                 : Достоверность
Использование точного потока : Да
Отключение кэша аудио        : Да
Использование указателей C2  : Нет
Коррекция смещения при чтении                     : 48
Способность читать области Lead-in и Lead-out     : Нет
Заполнение пропущенных сэмплов тишиной            : Да
Удаление блоков с тишиной в начале и конце        : Нет
При вычислениях CRC использовались нулевые сэмплы : Да
Интерфейс                                         : Установленный внешний ASPI-интерфейс
Выходной формат : Внутренние WAV-операции
Формат сэмплов  : 44.100 Гц; 16 бит; стерео
TOC извлечённого CD
     Трек |   Старт  | Длительность | Начальный сектор | Конечный сектор
    ---------------------------------------------------------------------
       1  |  0:00.00 |    2:38.60   |           0      |      11909
       2  |  2:38.60 |    2:35.17   |       11910      |      23551
       3  |  5:14.02 |    2:45.14   |       23552      |      35940
       4  |  7:59.16 |    2:40.00   |       35941      |      47940
       5  | 10:39.16 |    2:33.29   |       47941      |      59444
       6  | 13:12.45 |    2:41.31   |       59445      |      71550
       7  | 15:54.01 |    3:23.64   |       71551      |      86839
       8  | 19:17.65 |    2:39.62   |       86840      |      98826
       9  | 21:57.52 |    2:56.27   |       98827      |     112053
      10  | 24:54.04 |    2:51.73   |      112054      |     124951
      11  | 27:46.02 |    3:04.33   |      124952      |     138784
      12  | 30:50.35 |    2:51.50   |      138785      |     151659
      13  | 33:42.10 |    2:50.06   |      151660      |     164415
      14  | 36:32.16 |    2:23.50   |      164416      |     175190
      15  | 38:55.66 |    3:17.03   |      175191      |     189968
      16  | 42:12.69 |    3:36.61   |      189969      |     206229
      17  | 45:49.55 |    2:58.57   |      206230      |     219636
      18  | 48:48.37 |    3:11.08   |      219637      |     233969
Характеристики диапазона извлечения и сообщения об ошибках
Выбранный диапазон
     Имя файла B:\MP 3\France Chanson\Fernandel\Fernandel 1931 - 1948 (2 CD) (FLAC)\Disc 2\Fernandel - FERNANDEL 1931 - 1948 [Disc 2].wav
     Пиковый уровень 92.2 %
     Качество диапазона 100.0 %
     CRC копии 8B744893
     Копирование... OK
Ошибок не произошло
AccurateRip: сводка
Трек  1  нет в базе данных
Трек  2  нет в базе данных
Трек  3  нет в базе данных
Трек  4  нет в базе данных
Трек  5  нет в базе данных
Трек  6  нет в базе данных
Трек  7  нет в базе данных
Трек  8  нет в базе данных
Трек  9  нет в базе данных
Трек 10  нет в базе данных
Трек 11  нет в базе данных
Трек 12  нет в базе данных
Трек 13  нет в базе данных
Трек 14  нет в базе данных
Трек 15  нет в базе данных
Трек 16  нет в базе данных
Трек 17  нет в базе данных
Трек 18  нет в базе данных
Ни одного трека нет в базе AccurateRip
Конец отчёта
Правила, инструкции, FAQ!!!
Торрент  Добавлен [01 янв 2020, 23:05] Скачать торрент Магнет ссылка
Скачать торрент
[ Размер 13.57 КБ / Просмотров 2 ]

Статус
Проверен 
 
Размер  298.01 МБ
Приватный: Нет (DHT включён)
.torrent скачан  0
 


     Отправить личное сообщение
   
Страница 1 из 1
Показать сообщения за:  Поле сортировки  
Начать новую тему Ответить на тему


Сейчас этот форум просматривают: нет зарегистрированных пользователей и гости: 0


Вы не можете начинать темы
Вы не можете отвечать на сообщения
Вы не можете редактировать свои сообщения
Вы не можете удалять свои сообщения
Вы не можете добавлять вложения

Перейти:  
cron