Начать новую тему Ответить на тему
Статистика раздачи
Размер: 308.55 МБ | Добавлен: 01 янв 2020, 22:52 | Скачали: 0
Сидеров: 0  [0 байт/сек]    Личеров: 0  [0 байт/сек]
Пред. тема | След. тема 

Автор
Сообщение

СообщениеДобавлено: 01 янв 2020, 22:52 

Ответить с цитатой 

Faudel - Un Autre Soleil

Жанр: Chanson, Raï
Носитель: CD
Страна-производитель диска: Европа
Год издания: 2003
Издатель (лейбл): Mercury France/Universal Music Company
Номер по каталогу: 9810687
Страна: Algerian
Аудиокодек: FLAC (*.flac)
Кодек: tracks+.cue
Битрейт: lossless
Продолжительность: 00:43:00
Источник (релизер): Собственный диск
Наличие сканов в содержимом раздачи: да
Треклист:
01. Je Veux Vivre (03:12)
02. Un Autre Soleil (02:57)
03. Je Cherche (03:57)
04. Je N'ai Que Mon Cœur (03:40)
05. Manuja (04:01)
06. Woulli (03:43)
07. Maïna (03:43)
08. Souffrir Pour Lui Dire (03:46)
09. Orphelin (04:24)
10. Cours (02:58)
11. Entre Elle Et Moi (03:32)
12. Petit Être (03:23)


Код:
Exact Audio Copy V1.1 from 23. June 2015
Отчёт EAC об извлечении, выполненном 5. января 2017, 16:53
Faudel / Un Autre Soleil
Дисковод: HL-DT-STDVDRAM GP60NB60   Adapter: 1  ID: 1
Режим чтения                 : Достоверность
Использование точного потока : Да
Отключение кэша аудио        : Да
Использование указателей C2  : Нет
Коррекция смещения при чтении                     : 6
Способность читать области Lead-in и Lead-out     : Нет
Заполнение пропущенных сэмплов тишиной            : Да
Удаление блоков с тишиной в начале и конце        : Нет
При вычислениях CRC использовались нулевые сэмплы : Да
Интерфейс                                         : Встроенный Win32-интерфейс для Win NT/2000
Обработка зазоров                                 : Добавлено к предыдущему треку
Выходной формат          : Пользовательский кодировщик
Выбранный битрейт        : 768 kBit/s
Качество                 : Высокий
Добавление ID3-тега      : Нет
Утилита сжатия           : C:\Program Files\Foobar2000\encoders\flac.exe
Дополнительные параметры : -V -8 -T  "ARTIST=%artist%" -T "TITLE=%title%" -T "ALBUM=%albumtitle%" -T "DATE=%year%" -T "TRACKNUMBER=%tracknr%" -T "GENRE=%genre%" -T "BAND=%albuminterpret%" -T "ALBUMARTIST=%albuminterpret%" -T "COMPOSER=%composer%" %haslyrics%--tag-from-file=LYRICS="%lyricsfile%"%haslyrics% -T "DISCNUMBER=%cdnumber%" -T "TOTALDISCS=%totalcds%" -T "TOTALTRACKS=%numtracks%" %hascover%--picture="%coverfile%"%hascover% %source% -o %dest%
TOC извлечённого CD
Трек |   Старт  | Длительность | Начальный сектор | Конечный сектор
---------------------------------------------------------------------
1  |  0:00.00 |    3:12.73   |           0      |      14472
2  |  3:12.73 |    3:00.60   |       14473      |      28032
3  |  6:13.58 |    3:56.63   |       28033      |      45795
4  | 10:10.46 |    3:43.32   |       45796      |      62552
5  | 13:54.03 |    4:09.01   |       62553      |      81228
6  | 18:03.04 |    3:40.09   |       81229      |      97737
7  | 21:43.13 |    3:35.45   |       97738      |     113907
8  | 25:18.58 |    3:20.12   |      113908      |     128919
9  | 28:38.70 |    4:22.42   |      128920      |     148611
10  | 33:01.37 |    2:58.25   |      148612      |     161986
11  | 35:59.62 |    3:36.17   |      161987      |     178203
12  | 39:36.04 |    3:28.00   |      178204      |     193803
13  | 45:36.04 |    5:03.04   |      205204      |     227932
Трек  1
Имя файла H:\Музон (Loseless)\Мои Рипы\(2003) Faudel - Un Autre Soleil (FLAC)\01. Je Veux Vivre.wav
Длина предзазора  0:00:02.00
Пиковый уровень 100.0 %
Скорость извлечения 2.5 X
Качество трека 100.0 %
CRC теста FF6331DE
CRC копии FF6331DE
Трек не обнаружен в базе AccurateRip
Копирование... OK
Трек  2
Имя файла H:\Музон (Loseless)\Мои Рипы\(2003) Faudel - Un Autre Soleil (FLAC)\02. Un Autre Soleil.wav
Длина предзазора  0:00:01.07
Пиковый уровень 100.0 %
Скорость извлечения 2.7 X
Качество трека 100.0 %
CRC теста 75B72EE5
CRC копии 75B72EE5
Трек не обнаружен в базе AccurateRip
Копирование... OK
Трек  3
Имя файла H:\Музон (Loseless)\Мои Рипы\(2003) Faudel - Un Autre Soleil (FLAC)\03. Je Cherche.wav
Пиковый уровень 99.9 %
Скорость извлечения 3.1 X
Качество трека 100.0 %
CRC теста EF562CB1
CRC копии EF562CB1
Трек не обнаружен в базе AccurateRip
Копирование... OK
Трек  4
Имя файла H:\Музон (Loseless)\Мои Рипы\(2003) Faudel - Un Autre Soleil (FLAC)\04. Je N'ai Que Mon Cœur.wav
Длина предзазора  0:00:01.55
Пиковый уровень 99.9 %
Скорость извлечения 2.9 X
Качество трека 99.9 %
CRC теста 8FB8F837
CRC копии 8FB8F837
Трек не обнаружен в базе AccurateRip
Копирование... OK
Трек  5
Имя файла H:\Музон (Loseless)\Мои Рипы\(2003) Faudel - Un Autre Soleil (FLAC)\05. Manuja.wav
Длина предзазора  0:00:01.24
Пиковый уровень 99.9 %
Скорость извлечения 3.1 X
Качество трека 99.9 %
CRC теста 28F14CF7
CRC копии 28F14CF7
Трек не обнаружен в базе AccurateRip
Копирование... OK
Трек  6
Имя файла H:\Музон (Loseless)\Мои Рипы\(2003) Faudel - Un Autre Soleil (FLAC)\06. Woulli.wav
Пиковый уровень 99.9 %
Скорость извлечения 3.2 X
Качество трека 99.9 %
CRC теста DA91FB1D
CRC копии DA91FB1D
Трек не обнаружен в базе AccurateRip
Копирование... OK
Трек  7
Имя файла H:\Музон (Loseless)\Мои Рипы\(2003) Faudel - Un Autre Soleil (FLAC)\07. Maïna.wav
Пиковый уровень 99.9 %
Скорость извлечения 3.8 X
Качество трека 100.0 %
CRC теста 8162BB17
CRC копии 8162BB17
Трек не обнаружен в базе AccurateRip
Копирование... OK
Трек  8
Имя файла H:\Музон (Loseless)\Мои Рипы\(2003) Faudel - Un Autre Soleil (FLAC)\08. Souffrir Pour Lui Dire.wav
Длина предзазора  0:00:00.72
Пиковый уровень 100.0 %
Скорость извлечения 3.4 X
Качество трека 99.9 %
CRC теста 4413B187
CRC копии 4413B187
Трек не обнаружен в базе AccurateRip
Копирование... OK
Трек  9
Имя файла H:\Музон (Loseless)\Мои Рипы\(2003) Faudel - Un Autre Soleil (FLAC)\09. Orphelin.wav
Длина предзазора  0:00:01.10
Пиковый уровень 99.9 %
Скорость извлечения 4.3 X
Качество трека 100.0 %
CRC теста 52A3211E
CRC копии 52A3211E
Трек не обнаружен в базе AccurateRip
Копирование... OK
Трек 10
Имя файла H:\Музон (Loseless)\Мои Рипы\(2003) Faudel - Un Autre Soleil (FLAC)\10. Cours.wav
Длина предзазора  0:00:01.35
Пиковый уровень 99.9 %
Скорость извлечения 4.2 X
Качество трека 100.0 %
CRC теста 95031CA0
CRC копии 95031CA0
Трек не обнаружен в базе AccurateRip
Копирование... OK
Трек 11
Имя файла H:\Музон (Loseless)\Мои Рипы\(2003) Faudel - Un Autre Soleil (FLAC)\11. Entre Elle Et Moi.wav
Длина предзазора  0:00:01.19
Пиковый уровень 100.0 %
Скорость извлечения 4.4 X
Качество трека 100.0 %
CRC теста 5F9CBD1B
CRC копии 5F9CBD1B
Трек не обнаружен в базе AccurateRip
Копирование... OK
Трек 12
Имя файла H:\Музон (Loseless)\Мои Рипы\(2003) Faudel - Un Autre Soleil (FLAC)\12. Petit Être.wav
Длина предзазора  0:00:00.64
Пиковый уровень 99.4 %
Скорость извлечения 4.5 X
Качество трека 100.0 %
CRC теста B417D8FA
CRC копии B417D8FA
Трек не обнаружен в базе AccurateRip
Копирование... OK
Ни одного трека нет в базе AccurateRip
Ошибок не произошло
Конец отчёта
---- CUETools DB Plugin V2.1.6
[CTDB TOCID: ms4eMEMDagCkBwCW_PEy0.28nq4-] found
Submit result: ms4eMEMDagCkBwCW_PEy0.28nq4- has been uploaded
Track | CTDB Status
1   | (5/5) Accurately ripped
2   | (5/5) Accurately ripped
3   | (5/5) Accurately ripped
4   | (5/5) Accurately ripped
5   | (5/5) Accurately ripped
6   | (5/5) Accurately ripped
7   | (5/5) Accurately ripped
8   | (4/5) Accurately ripped
9   | (4/5) Accurately ripped
10   | (4/5) Accurately ripped
11   | (4/5) Accurately ripped
12   | (4/5) Accurately ripped
==== Контрольная сумма отчёта CF7C9DD8D3C7EC632BAA7BA9FC6C9E0CB8DCE696B372B4B6A874DEB9FA489A09 ====
Код:
REM GENRE Chanson
REM DATE 2003
REM DISCID A90BDF0D
REM COMMENT "ExactAudioCopy v1.1"
PERFORMER "Faudel"
TITLE "Un Autre Soleil"
FILE "01. Je Veux Vivre.wav" WAVE
TRACK 01 AUDIO
TITLE "Je Veux Vivre"
PERFORMER "Faudel"
INDEX 01 00:00:00
TRACK 02 AUDIO
TITLE "Un Autre Soleil"
PERFORMER "Faudel"
INDEX 00 03:11:66
FILE "02. Un Autre Soleil.wav" WAVE
INDEX 01 00:00:00
FILE "03. Je Cherche.wav" WAVE
TRACK 03 AUDIO
TITLE "Je Cherche"
PERFORMER "Faudel"
INDEX 01 00:00:00
TRACK 04 AUDIO
TITLE "Je N'ai Que Mon C.ur"
PERFORMER "Faudel"
INDEX 00 03:55:08
FILE "04. Je N'ai Que Mon C.ur.wav" WAVE
INDEX 01 00:00:00
TRACK 05 AUDIO
TITLE "Manuja"
PERFORMER "Faudel"
INDEX 00 03:42:08
FILE "05. Manuja.wav" WAVE
INDEX 01 00:00:00
FILE "06. Woulli.wav" WAVE
TRACK 06 AUDIO
TITLE "Woulli"
PERFORMER "Faudel"
INDEX 01 00:00:00
FILE "07. Maina.wav" WAVE
TRACK 07 AUDIO
TITLE "Maina"
PERFORMER "Faudel"
INDEX 01 00:00:00
TRACK 08 AUDIO
TITLE "Souffrir Pour Lui Dire"
PERFORMER "Faudel"
INDEX 00 03:34:48
FILE "08. Souffrir Pour Lui Dire.wav" WAVE
INDEX 01 00:00:00
TRACK 09 AUDIO
TITLE "Orphelin"
PERFORMER "Faudel"
INDEX 00 03:19:02
FILE "09. Orphelin.wav" WAVE
INDEX 01 00:00:00
TRACK 10 AUDIO
TITLE "Cours"
PERFORMER "Faudel"
INDEX 00 04:21:07
FILE "10. Cours.wav" WAVE
INDEX 01 00:00:00
TRACK 11 AUDIO
TITLE "Entre Elle Et Moi"
PERFORMER "Faudel"
INDEX 00 02:57:06
FILE "11. Entre Elle Et Moi.wav" WAVE
INDEX 01 00:00:00
TRACK 12 AUDIO
TITLE "Petit Etre"
PERFORMER "Faudel"
INDEX 00 03:35:28
FILE "12. Petit Etre.wav" WAVE
INDEX 01 00:00:00
Код:
-----------------------
DON'T MODIFY THIS FILE
-----------------------
PERFORMER: auCDtect Task Manager, ver. 1.6.0 RC1 build 1.6.0.1
Copyright (c) 2008-2010 y-soft. All rights reserved
[url=http://y-soft.org]http://y-soft.org[/url]
ANALYZER: auCDtect: CD records authenticity detector, version 0.8.2
Copyright (c) 2004 Oleg Berngardt. All rights reserved.
Copyright (c) 2004 Alexander Djourik. All rights reserved.
FILE: 01. Je Veux Vivre.flac
Size: 23354749 Hash: D8228EACD465CAC1F4AE7365CBCD0F0D Accuracy: -m0
Conclusion: CDDA 100%
Signature: D2F1CE834DCB4157F3F624F59E1E939CC8B4449C
FILE: 02. Un Autre Soleil.flac
Size: 22853031 Hash: 19E0CD99F3F2ECFDA34F9E49592C4CB5 Accuracy: -m0
Conclusion: CDDA 100%
Signature: 75229B3786432038CC42635B92D99DBAA834E265
FILE: 03. Je Cherche.flac
Size: 25975777 Hash: 1745BB15A3DB909664B7D9B4602C6663 Accuracy: -m0
Conclusion: CDDA 100%
Signature: 268882073AC76AA378B1857D8724C5F16D7F50EA
FILE: 04. Je N'ai Que Mon Cœur.flac
Size: 27657013 Hash: EFF1FE73F3D62EC28FFC7D9B05B683E4 Accuracy: -m0
Conclusion: CDDA 100%
Signature: FA3B6533E806D07A1FEF4215BBD59DC0565ADAF7
FILE: 05. Manuja.flac
Size: 28837212 Hash: B1D30D24EDE43591BB8A4F5096AC2B89 Accuracy: -m0
Conclusion: CDDA 100%
Signature: EF3EA7BA1BF1CD4F2F71A38D6FB663CDE3F5F16D
FILE: 06. Woulli.flac
Size: 27461696 Hash: 03D11AE68AF78F611597C27751359536 Accuracy: -m0
Conclusion: CDDA 100%
Signature: 30ACA6BE56CF3EFA7A74C1F1EF08FFD42A4785A6
FILE: 07. Maïna.flac
Size: 27397759 Hash: C49E661AE2905B74E30C6AB2EEBD4D43 Accuracy: -m0
Conclusion: CDDA 100%
Signature: CA1C56A39E1443D2D86359C6F17F9E76EAFB6CA2
FILE: 08. Souffrir Pour Lui Dire.flac
Size: 23109181 Hash: 4FF933615126C4A7CD4A8CEF82477C7E Accuracy: -m0
Conclusion: CDDA 100%
Signature: 09389BE2B6EF37D719341DFB92A6C64B77F46E49
FILE: 09. Orphelin.flac
Size: 29491215 Hash: 87766CF38734264C2B9299229950B369 Accuracy: -m0
Conclusion: CDDA 100%
Signature: 437533584D4A9721F47C873DACAE061833A81D2B
FILE: 10. Cours.flac
Size: 22238755 Hash: 78FB54DE6C62925DC515F6ACE9CCCC29 Accuracy: -m0
Conclusion: CDDA 100%
Signature: 26818433F2F11EF01C2AF5DA562137D3726B46FE
FILE: 11. Entre Elle Et Moi.flac
Size: 24846463 Hash: C635341A2AECBA68A94308E257A51E36 Accuracy: -m0
Conclusion: CDDA 100%
Signature: CAA59857C926D50086AEAFE2BD06DDB48DA14887
FILE: 12. Petit Être.flac
Size: 18796451 Hash: 177AB080079318761A25E8247DDF2010 Accuracy: -m0
Conclusion: CDDA 100%
Signature: 518D49926C56E0A67A8B4B89DB4ED03523798847
Правила, инструкции, FAQ!!!
Торрент  Добавлен [01 янв 2020, 22:52] Скачать торрент Магнет ссылка
Скачать торрент
[ Размер 13.81 КБ / Просмотров 3 ]

Статус
Проверен 
 
Размер  308.55 МБ
Приватный: Нет (DHT включён)
.torrent скачан  0
 


     Отправить личное сообщение
   
Страница 1 из 1
Показать сообщения за:  Поле сортировки  
Начать новую тему Ответить на тему


Сейчас этот форум просматривают: нет зарегистрированных пользователей и гости: 0


Вы не можете начинать темы
Вы не можете отвечать на сообщения
Вы не можете редактировать свои сообщения
Вы не можете удалять свои сообщения
Вы не можете добавлять вложения

Перейти:  
cron