Начать новую тему Ответить на тему
Статистика раздачи
Размер: 135.34 МБ | Добавлен: 01 янв 2020, 23:00 | Скачали: 1
Сидеров: 0  [0 байт/сек]    Личеров: 0  [0 байт/сек]
Пред. тема | След. тема 

Автор
Сообщение

СообщениеДобавлено: 01 янв 2020, 23:00 

Ответить с цитатой 

Edith Piaf / La vie en rose
Жанр: chanson
Носитель: CD
Страна-производитель диска: EEC
Год издания: 1998
Издатель (лейбл): Soldore
Номер по каталогу: SOL 503
Страна: France
Аудиокодек: FLAC (*.flac)
Тип рипа: image+.cue
Битрейт аудио: lossless
Продолжительность: 1:00:12.70
Источник (релизер): собственный рип с оригинала
Наличие сканов в содержимом раздачи: да
Треклист:
01. La Vie En Rose 03:07
02. J'M'En Fous Pas Mal 04:21
03. Le Petit Homme 03:40
04. Un Refrain Courait Dans La Rue 03:05
05. Céline 03:16
06. Le Roi A Fait Battre Tambour 02:43
07. Dans Les Prisons De Nantes 02:31
08. Les Trois Cloches 04:11
09. Adieu Mon Coeur 03:07
10. Le Chant Du Pirate 02:11
11. C'Est Merveilleux 03:06
12. Mariage 04:26
13. Un Homme Comme Les Autres 03:50
14. Qu'As-Tu Fait John 02:19
15. C'Est Pour Ça 04:19
16. Il Pleut 03:22
17. Monsieur Lenoble 03:27
18. Les Amants De Paris 03:13
Код:
Exact Audio Copy V1.0 beta 3 from 29. August 2011
Отчёт EAC об извлечении, выполненном 24. февраля 2014, 20:56
Edith Piaf / La Vie En Rose
Дисковод: TSSTcorpCDDVDW SH-222AL   Adapter: 3  ID: 0
Режим чтения                 : Достоверность
Использование точного потока : Да
Отключение кэша аудио        : Да
Использование указателей C2  : Нет
Коррекция смещения при чтении                     : 6
Способность читать области Lead-in и Lead-out     : Нет
Заполнение пропущенных сэмплов тишиной            : Да
Удаление блоков с тишиной в начале и конце        : Нет
При вычислениях CRC использовались нулевые сэмплы : Да
Интерфейс                                         : Встроенный Win32-интерфейс для Win NT/2000
Выходной формат : Внутренние WAV-операции
Формат сэмплов  : 44.100 Гц; 16 бит; стерео
TOC извлечённого CD
     Трек |   Старт  | Длительность | Начальный сектор | Конечный сектор
    ---------------------------------------------------------------------
       1  |  0:00.32 |    3:06.48   |          32      |      14029
       2  |  3:07.05 |    4:20.72   |       14030      |      33601
       3  |  7:28.02 |    3:40.19   |       33602      |      50120
       4  | 11:08.21 |    3:04.47   |       50121      |      63967
       5  | 14:12.68 |    3:15.69   |       63968      |      78661
       6  | 17:28.62 |    2:43.28   |       78662      |      90914
       7  | 20:12.15 |    2:31.16   |       90915      |     102255
       8  | 22:43.31 |    4:10.60   |      102256      |     121065
       9  | 26:54.16 |    3:06.46   |      121066      |     135061
      10  | 30:00.62 |    2:11.37   |      135062      |     144923
      11  | 32:12.24 |    3:05.38   |      144924      |     158836
      12  | 35:17.62 |    4:26.31   |      158837      |     178817
      13  | 39:44.18 |    3:50.18   |      178818      |     196085
      14  | 43:34.36 |    2:18.63   |      196086      |     206498
      15  | 45:53.24 |    4:18.40   |      206499      |     225888
      16  | 50:11.64 |    3:21.46   |      225889      |     241009
      17  | 53:33.35 |    3:27.18   |      241010      |     256552
      18  | 57:00.53 |    3:12.49   |      256553      |     271001
Характеристики диапазона извлечения и сообщения об ошибках
Выбранный диапазон
     Имя файла G:\MUSIC\Edith Piaf - La Vie En Rose\Edith Piaf - La Vie En Rose.wav
     Пиковый уровень 100.0 %
     Скорость извлечения 3.0 X
     Качество диапазона 100.0 %
     CRC теста E6DF9193
     CRC копии E6DF9193
     Копирование... OK
Ошибок не произошло
AccurateRip: сводка
Трек  1  : извлечено точно (доверие 2)  [CF4895B6]  (AR v2)
Трек  2  : извлечено точно (доверие 3)  [BD42847F]  (AR v2)
Трек  3  : извлечено точно (доверие 3)  [8B255015]  (AR v2)
Трек  4  : извлечено точно (доверие 3)  [51CCEC92]  (AR v2)
Трек  5  : извлечено точно (доверие 3)  [B4EB8D7E]  (AR v2)
Трек  6  : извлечено точно (доверие 3)  [4CCE1FFF]  (AR v2)
Трек  7  : извлечено точно (доверие 3)  [CF5AB460]  (AR v2)
Трек  8  : извлечено точно (доверие 3)  [E9B5246C]  (AR v2)
Трек  9  : извлечено точно (доверие 3)  [F507B462]  (AR v2)
Трек 10  : извлечено точно (доверие 3)  [3FEDE593]  (AR v2)
Трек 11  : извлечено точно (доверие 3)  [F4D2C3F0]  (AR v2)
Трек 12  : извлечено точно (доверие 3)  [3C0AF71D]  (AR v2)
Трек 13  : извлечено точно (доверие 3)  [852D4B66]  (AR v2)
Трек 14  : извлечено точно (доверие 3)  [597E49E3]  (AR v2)
Трек 15  : извлечено точно (доверие 3)  [80DCCD8F]  (AR v2)
Трек 16  : извлечено точно (доверие 3)  [23853688]  (AR v2)
Трек 17  : извлечено точно (доверие 3)  [9D33254E]  (AR v2)
Трек 18  : извлечено точно (доверие 3)  [634C4A73]  (AR v2)
Все треки извлечены точно
Код:
REM GENRE Chanson
REM DATE 1998
REM DISCID E10E1D12
REM COMMENT "ExactAudioCopy v1.0b3"
PERFORMER "Edith Piaf"
TITLE "La Vie En Rose"
FILE "Edith Piaf - La Vie En Rose.flac" FLAC
  TRACK 01 AUDIO
    TITLE "La Vie En Rose"
    PERFORMER "Edith Piaf"
    INDEX 00 00:00:00
    INDEX 01 00:00:32
  TRACK 02 AUDIO
    TITLE "J'M'En Fous Pas Mal"
    PERFORMER "Edith Piaf"
    INDEX 01 03:07:05
  TRACK 03 AUDIO
    TITLE "Le Petit Homme"
    PERFORMER "Edith Piaf"
    INDEX 01 07:28:02
  TRACK 04 AUDIO
    TITLE "Un Refrain Courait Dans La Rue"
    PERFORMER "Edith Piaf"
    INDEX 01 11:08:21
  TRACK 05 AUDIO
    TITLE "Celine"
    PERFORMER "Edith Piaf"
    INDEX 01 14:12:68
  TRACK 06 AUDIO
    TITLE "Le Roi A Fait Battre Tambour"
    PERFORMER "Edith Piaf"
    INDEX 01 17:28:62
  TRACK 07 AUDIO
    TITLE "Dans Les Prisons De Nantes"
    PERFORMER "Edith Piaf"
    INDEX 01 20:12:15
  TRACK 08 AUDIO
    TITLE "Les Trois Cloches"
    PERFORMER "Edith Piaf"
    INDEX 01 22:43:31
  TRACK 09 AUDIO
    TITLE "Adieu Mon Coeur"
    PERFORMER "Edith Piaf"
    INDEX 01 26:54:16
  TRACK 10 AUDIO
    TITLE "Le Chant Du Pirate"
    PERFORMER "Edith Piaf"
    INDEX 01 30:00:62
  TRACK 11 AUDIO
    TITLE "C'Est Merveilleux"
    PERFORMER "Edith Piaf"
    INDEX 01 32:12:24
  TRACK 12 AUDIO
    TITLE "Mariage"
    PERFORMER "Edith Piaf"
    INDEX 01 35:17:62
  TRACK 13 AUDIO
    TITLE "Un Homme Comme Les Autres"
    PERFORMER "Edith Piaf"
    INDEX 01 39:44:18
  TRACK 14 AUDIO
    TITLE "Qu'As-Tu Fait John"
    PERFORMER "Edith Piaf"
    INDEX 01 43:34:36
  TRACK 15 AUDIO
    TITLE "C'Est Pour Ca"
    PERFORMER "Edith Piaf"
    INDEX 01 45:53:24
  TRACK 16 AUDIO
    TITLE "Il Pleut"
    PERFORMER "Edith Piaf"
    INDEX 01 50:11:64
  TRACK 17 AUDIO
    TITLE "Monsieur Lenoble"
    PERFORMER "Edith Piaf"
    INDEX 01 53:33:35
  TRACK 18 AUDIO
    TITLE "Les Amants De Paris"
    PERFORMER "Edith Piaf"
    INDEX 01 57:00:53
Доп. информация: Barcode: 8 713051 005031
Rights Society: M.C.P.S.
Правила, инструкции, FAQ!!!
Торрент  Добавлен [01 янв 2020, 23:00] Скачать торрент Магнет ссылка
Скачать торрент
[ Размер 11.34 КБ / Просмотров 7 ]

Статус
Проверен 
 
Размер  135.34 МБ
Приватный: Нет (DHT включён)
.torrent скачан  1
 


     Отправить личное сообщение
   
Страница 1 из 1
Показать сообщения за:  Поле сортировки  
Начать новую тему Ответить на тему


Сейчас этот форум просматривают: нет зарегистрированных пользователей и гости: 0


Вы не можете начинать темы
Вы не можете отвечать на сообщения
Вы не можете редактировать свои сообщения
Вы не можете удалять свои сообщения
Вы не можете добавлять вложения

Перейти:  
cron