Начать новую тему Ответить на тему
Статистика раздачи
Размер: 467.44 МБ | Добавлен: 01 янв 2020, 23:00 | Скачали: 0
Сидеров: 0  [0 байт/сек]    Личеров: 0  [0 байт/сек]
Пред. тема | След. тема 

Автор
Сообщение

СообщениеДобавлено: 01 янв 2020, 23:00 

Ответить с цитатой 

Edith Piaf - Hymne а l'Amour 2CD
Страна: UK
Жанр: Chanson
Год выпуска: 2007
Формат: APE (image + .cue)
Битрейт аудио: lossless
Продолжительность: 74:20 + 73:52
Трэклист:
CD1:
01. L'Accordйoniste (3:38)
02. Sous le ciel de Paris (3:24)
03. La Sйrйnade du Pave (3:38)
04. Bravo Pour Le Clown (3:06)
05. La Petite Boutique (3:20)
06. Notre Dame de Paris (3:05)
07. Monsieur et Madame (3:01)
08. La Rue Aux Chansons (2:55)
09. Rien de Rien (2:20)
10. La Chanson de Catherine (3:26)
11. Je t'ai dans la paux (2:48)
12. Hymne а l'Amour (3:27)
13. Danny (2:43)
14. Bal dans ma Rue (2:58)
15. Pour Moi Toute Seule (3:24)
16. La Fкte Continue (3:06)
17. Paris (2:42)
18. Il Pleut (3:19)
19. Un Homme Comme Les Autres (3:50)
20. Dans Les Prisons De Nantes (2:31)
21. Cйline (3:15)
22. Le Chant Du Pirate (2:11)
23. Adieu Mon Coeur (3:06)
24. La Vie En Rose (3:06)
CD2:
01. Les Trois Cloches (4:09)
02. Regardez-Moi Toujours Comme Зa (3:45)
03. De L'autre Cфtй de La Rue (3:22)
04. Le Vagabond (3:24)
05. Les Amants De Paris (3:12)
06. Jimmy C'est Lui (2:56)
07. J'ai Dansй Avec l'Amour (3:17)
08. Embrasse-Moi (2:53)
09. C'est Un Monsieur Trиs Distinguй (3:37)
10. Le Brun Et Le Blond (3:09)
11. Elle Frйquentait La Rue Pigalle (3:33)
12. Le Grand Voyage Du Pauvre Nиgre (3:47)
13. Le Petit Monsieur Triste (2:49)
14. C'йtait Un Jour De Fкte (3:55)
15. Les Deux Copains (3:01)
16. Le Mauvais Matelot (3:40)
17. Le Contrebandier (2:48)
18. Dans Un Bouge Du Vieux Port (3:04)
19. Mon Coeur Est Au Coin D'une Rue (3:05)
20. Il N'est Pas Distinguй (2:59)
21. Mon Lйgionnaire (3:52)
22. L'йtranger (3:35)
Exact Audio Copy V0.99 prebeta 4 from 23. January 2008
Отчёт EAC об извлечении, выполненном 15. марта 2008, 14:43
Edith Piaf / Hymne а l'Amour
Дисковод: HL-DT-STDVD+-RW GSA-T11N Adapter: 0 ID: 0
Режим чтения : Достоверность
Использование точного потока : Да
Отключение кэша аудио : Да
Использование указателей C2 : Нет
Коррекция смещения при чтении : 667
Способность читать области Lead-in и Lead-out : Нет
Заполнение пропущенных сэмплов тишиной : Да
Удаление блоков с тишиной в начале и конце : Нет
При вычислениях CRC использовались нулевые сэмплы : Нет
Интерфейс : Встроенный Win32-интерфейс для Win NT/2000
Выходной формат : Внутренние WAV-операции
Формат сэмплов : 44.100 Гц; 16 бит; стерео
TOC извлечённого CD
Трек | Старт | Длительность | Начальный сектор | Конечный сектор
---------------------------------------------------------------------
1 | 0:00.00 | 3:38.18 | 0 | 16367
2 | 3:38.18 | 3:23.63 | 16368 | 31655
3 | 7:02.06 | 3:37.49 | 31656 | 47979
4 | 10:39.55 | 3:06.06 | 47980 | 61935
5 | 13:45.61 | 3:19.68 | 61936 | 76928
6 | 17:05.54 | 3:05.03 | 76929 | 90806
7 | 20:10.57 | 3:01.06 | 90807 | 104387
8 | 23:11.63 | 2:55.36 | 104388 | 117548
9 | 26:07.24 | 2:19.57 | 117549 | 128030
10 | 28:27.06 | 3:26.24 | 128031 | 143504
11 | 31:53.30 | 2:48.18 | 143505 | 156122
12 | 34:41.48 | 3:26.67 | 156123 | 171639
13 | 38:08.40 | 2:43.00 | 171640 | 183864
14 | 40:51.40 | 2:58.18 | 183865 | 197232
15 | 43:49.58 | 3:23.38 | 197233 | 212495
16 | 47:13.21 | 3:06.34 | 212496 | 226479
17 | 50:19.55 | 2:42.02 | 226480 | 238631
18 | 53:01.57 | 3:19.28 | 238632 | 253584
19 | 56:21.10 | 3:50.16 | 253585 | 270850
20 | 60:11.26 | 2:31.18 | 270851 | 282193
21 | 62:42.44 | 3:14.68 | 282194 | 296811
22 | 65:57.37 | 2:10.62 | 296812 | 306623
23 | 68:08.24 | 3:05.46 | 306624 | 320544
24 | 71:13.70 | 3:05.64 | 320545 | 334483
Характеристики диапазона извлечения и сообщения об ошибках
Выбранный диапазон
Имя файла C:\Downloads\uploads\Edith Piaf - Hymne а l'Amour - 2007\CD1\Edith Piaf - Hymne а l'Amour CD1.wav
Пиковый уровень 89.4 %
Качество диапазона 100.0 %
CRC теста 7E761FD2
CRC копии 7E761FD2
Копирование... OK
Ошибок не произошло
Конец отчёта
Exact Audio Copy V0.99 prebeta 4 from 23. January 2008
Отчёт EAC об извлечении, выполненном 15. марта 2008, 15:14
Edith Piaf / Hymne а l'Amour
Дисковод: HL-DT-STDVD+-RW GSA-T11N Adapter: 0 ID: 0
Режим чтения : Достоверность
Использование точного потока : Да
Отключение кэша аудио : Да
Использование указателей C2 : Нет
Коррекция смещения при чтении : 667
Способность читать области Lead-in и Lead-out : Нет
Заполнение пропущенных сэмплов тишиной : Да
Удаление блоков с тишиной в начале и конце : Нет
При вычислениях CRC использовались нулевые сэмплы : Нет
Интерфейс : Встроенный Win32-интерфейс для Win NT/2000
Выходной формат : Внутренние WAV-операции
Формат сэмплов : 44.100 Гц; 16 бит; стерео
TOC извлечённого CD
Трек | Старт | Длительность | Начальный сектор | Конечный сектор
---------------------------------------------------------------------
1 | 0:00.00 | 4:09.07 | 0 | 18681
2 | 4:09.07 | 3:44.39 | 18682 | 35520
3 | 7:53.46 | 3:21.72 | 35521 | 50667
4 | 11:15.43 | 3:24.02 | 50668 | 65969
5 | 14:39.45 | 3:12.08 | 65970 | 80377
6 | 17:51.53 | 2:55.65 | 80378 | 93567
7 | 20:47.43 | 3:17.17 | 93568 | 108359
8 | 24:04.60 | 2:53.14 | 108360 | 121348
9 | 26:57.74 | 3:36.52 | 121349 | 137600
10 | 30:34.51 | 3:09.07 | 137601 | 151782
11 | 33:43.58 | 3:33.19 | 151783 | 167776
12 | 37:17.02 | 3:47.24 | 167777 | 184825
13 | 41:04.26 | 2:49.14 | 184826 | 197514
14 | 43:53.40 | 3:54.40 | 197515 | 215104
15 | 47:48.05 | 3:01.29 | 215105 | 228708
16 | 50:49.34 | 3:40.09 | 228709 | 245217
17 | 54:29.43 | 2:47.74 | 245218 | 257816
18 | 57:17.42 | 3:04.20 | 257817 | 271636
19 | 60:21.62 | 3:04.41 | 271637 | 285477
20 | 63:26.28 | 2:59.23 | 285478 | 298925
21 | 66:25.51 | 3:51.43 | 298926 | 316293
22 | 70:17.19 | 3:34.52 | 316294 | 332395
Характеристики диапазона извлечения и сообщения об ошибках
Выбранный диапазон
Имя файла C:\Downloads\uploads\Edith Piaf - Hymne а l'Amour - 2007\CD2\Edith Piaf - Hymne а l'Amour CD2.wav
Пиковый уровень 100.0 %
Качество диапазона 100.0 %
CRC теста 01E620F8
CRC копии 01E620F8
Копирование... OK
Ошибок не произошло
Конец отчёта
Доп. информация: все треки были подвергнуты ремастерингу.
Правила, инструкции, FAQ!!!
Торрент  Добавлен [01 янв 2020, 23:00] Скачать торрент Магнет ссылка
Скачать торрент
[ Размер 19.15 КБ / Просмотров 0 ]

Статус
Проверен 
 
Размер  467.44 МБ
Приватный: Нет (DHT включён)
.torrent скачан  0
 


     Отправить личное сообщение
   
Страница 1 из 1
Показать сообщения за:  Поле сортировки  
Начать новую тему Ответить на тему


Сейчас этот форум просматривают: нет зарегистрированных пользователей и гости: 0


Вы не можете начинать темы
Вы не можете отвечать на сообщения
Вы не можете редактировать свои сообщения
Вы не можете удалять свои сообщения
Вы не можете добавлять вложения

Перейти:  
cron