Начать новую тему Ответить на тему
Статистика раздачи
Размер: 310.85 МБ | Добавлен: 01 янв 2020, 22:59 | Скачали: 0
Сидеров: 0  [0 байт/сек]    Личеров: 0  [0 байт/сек]
Пред. тема | След. тема 

Автор
Сообщение

СообщениеДобавлено: 01 янв 2020, 22:59 

Ответить с цитатой 

Edith Piaf / L'Homme A La Moto
Жанр: Chanson
Носитель: CD
Страна-производитель диска (релиза): France
Год издания: 2010
Издатель (лейбл): Membran Music Ltd
Номер по каталогу: 231087-205
Страна исполнителя (группы): France
Аудиокодек: FLAC (*.flac)
Тип рипа: image+.cue
Битрейт аудио: lossless
Продолжительность: 01:11:15
Источник (релизер): cd из собственной коллекции
Наличие сканов в содержимом раздачи: нет
Треклист:
1. L'Homme A La Moto
2. C'est A Hambourg
3. Les Amants D'un Jour
4. N'y Vas Pas Manuel - MPEG
5. Soeur Anne - MPEG
6. Je Hais Les Dimanches - MPEG
7. C'est D'la Faute A Tes Yeux - MPEG
8. Soudain Une Vallee
9. Avant Nous
10. Et Pourtant
11. Legende
12. Un Grand Amour Qui S'acheve
13. Avec Ce Soleil - MPEG
14. L'effet Que Tu Me Fais - MPEG
15. L'homme Au Piano - MPEG
16. Une Dame
17. Marie La Francaise
18. Serenade Du Pave - MPEG
19. Mea Culpa - MPEG
20. Heureuse - MPEG
21. Misericorde
22. Les Chemins Des Forains
Код:
Exact Audio Copy V1.0 beta 4 from 7. December 2014
Отчёт EAC об извлечении, выполненном 1. апреля 2016, 7:45
Edith Piaf / L'homme à la moto
Дисковод: TSSTcorpCDDVDW SN-208DB   Adapter: 1  ID: 0
Режим чтения                 : Достоверность
Использование точного потока : Да
Отключение кэша аудио        : Да
Использование указателей C2  : Нет
Коррекция смещения при чтении                     : 6
Способность читать области Lead-in и Lead-out     : Нет
Заполнение пропущенных сэмплов тишиной            : Да
Удаление блоков с тишиной в начале и конце        : Нет
При вычислениях CRC использовались нулевые сэмплы : Да
Интерфейс                                         : Встроенный Win32-интерфейс для Win NT/2000
Выходной формат          : Пользовательский кодировщик
Выбранный битрейт        : 128 kBit/s
Качество                 : Высокий
Добавление ID3-тега      : Нет
Утилита сжатия           : D:\Program Files\Exact Audio Copy\Flac\flac.exe
Дополнительные параметры : -V -8 -T "Date=%year%" -T "Genre=%genre%" %source%
TOC извлечённого CD
     Трек |   Старт  | Длительность | Начальный сектор | Конечный сектор
    ---------------------------------------------------------------------
       1  |  0:00.00 |    2:07.27   |           0      |       9551
       2  |  2:07.27 |    3:05.70   |        9552      |      23496
       3  |  5:13.22 |    3:19.56   |       23497      |      38477
       4  |  8:33.03 |    3:10.33   |       38478      |      52760
       5  | 11:43.36 |    3:56.24   |       52761      |      70484
       6  | 15:39.60 |    3:28.22   |       70485      |      86106
       7  | 19:08.07 |    3:24.65   |       86107      |     101471
       8  | 22:32.72 |    3:39.27   |      101472      |     117923
       9  | 26:12.24 |    3:02.25   |      117924      |     131598
      10  | 29:14.49 |    3:02.21   |      131599      |     145269
      11  | 32:16.70 |    3:33.47   |      145270      |     161291
      12  | 35:50.42 |    3:42.49   |      161292      |     177990
      13  | 39:33.16 |    2:25.04   |      177991      |     188869
      14  | 41:58.20 |    3:16.60   |      188870      |     203629
      15  | 45:15.05 |    2:05.47   |      203630      |     213051
      16  | 47:20.52 |    2:43.21   |      213052      |     225297
      17  | 50:03.73 |    3:58.56   |      225298      |     243203
      18  | 54:02.54 |    3:40.36   |      243204      |     259739
      19  | 57:43.15 |    3:09.55   |      259740      |     273969
      20  | 60:52.70 |    3:24.55   |      273970      |     289324
      21  | 64:17.50 |    3:44.71   |      289325      |     306195
      22  | 68:02.46 |    3:12.56   |      306196      |     320651
Характеристики диапазона извлечения и сообщения об ошибках
Выбранный диапазон
     Имя файла D:\Edith Piaf - L'homme à la moto.wav
     Пиковый уровень 100.0 %
     Скорость извлечения 4.3 X
     Качество диапазона 100.0 %
     CRC теста 94664BB5
     CRC копии 94664BB5
     Копирование... OK
Ошибок не произошло
Конец отчёта
==== Контрольная сумма отчёта 8F69AFF7B7643C8890738971CB68BFC01D6BF6E6F9352E5F7E6382E11643E6F3 ====
[pre]Started at: пятница, 01. 04. 2016. - 10:19.25
22 files found
01 -===- D:\01 - L'Homme A La Moto.flac
Extracted successfully
Conclusion: this track is CDDA with probability 99%
02 -===- D:\02 - C'est A Hambourg.flac
Extracted successfully
Conclusion: this track is CDDA with probability 99%
03 -===- D:\03 - Les Amants D'un Jour.flac
Extracted successfully
Conclusion: this track is CDDA with probability 100%
04 -===- D:\04 - N'y Vas Pas Manuel.flac
Extracted successfully
Conclusion: this track is MPEG with probability 100%
05 -===- D:\05 - Soeur Anne.flac
Extracted successfully
Conclusion: this track is MPEG with probability 95%
06 -===- D:\06 - Je Hais Les Dimanches.flac
Extracted successfully
Conclusion: this track is MPEG with probability 95%
07 -===- D:\07 - C'est D'la Faute A Tes Yeux.flac
Extracted successfully
Conclusion: this track is MPEG with probability 100%
08 -===- D:\08 - Soudain Une Vallee.flac
Extracted successfully
Conclusion: this track is CDDA with probability 100%
09 -===- D:\09 - Avant Nous.flac
Extracted successfully
Conclusion: this track is CDDA with probability 100%
10 -===- D:\10 - Et Pourtant.flac
Extracted successfully
Conclusion: this track is CDDA with probability 99%
11 -===- D:\11 - Legende.flac
Extracted successfully
Conclusion: this track is CDDA with probability 100%
12 -===- D:\12 - Un Grand Amour Qui S'acheve.flac
Extracted successfully
Conclusion: this track is CDDA with probability 100%
13 -===- D:\13 - Avec Ce Soleil.flac
Extracted successfully
Conclusion: this track is MPEG with probability 95%
14 -===- D:\14 - L'effet Que Tu Me Fais.flac
Extracted successfully
Conclusion: this track is MPEG with probability 95%
15 -===- D:\15 - L'homme Au Piano.flac
Extracted successfully
Conclusion: this track is MPEG with probability 95%
16 -===- D:\16 - Une Dame.flac
Extracted successfully
Conclusion: this track is CDDA with probability 100%
17 -===- D:\17 - Marie La Francaise.flac
Extracted successfully
Conclusion: this track is CDDA with probability 100%
18 -===- D:\18 - Serenade Du Pave.flac
Extracted successfully
Conclusion: this track is MPEG with probability 95%
19 -===- D:\19 - Mea Culpa.flac
Extracted successfully
Conclusion: this track is MPEG with probability 95%
20 -===- D:\20 - Heureuse.flac
Extracted successfully
Conclusion: this track is MPEG with probability 95%
21 -===- D:\21 - Misericorde.flac
Extracted successfully
Conclusion: this track is CDDA with probability 100%
22 -===- D:\22 - Les Chemins Des Forains.flac
Extracted successfully
Conclusion: this track is CDDA with probability 100%
Finished at: пятница, 01. 04. 2016. - 10:23.53 (operation time: 0:04.28)
Правила, инструкции, FAQ!!!
Торрент  Добавлен [01 янв 2020, 22:59] Скачать торрент Магнет ссылка
Скачать торрент
[ Размер 12.78 КБ / Просмотров 2 ]

Статус
Проверен 
 
Размер  310.85 МБ
Приватный: Нет (DHT включён)
.torrent скачан  0
 


     Отправить личное сообщение
   
Страница 1 из 1
Показать сообщения за:  Поле сортировки  
Начать новую тему Ответить на тему


Сейчас этот форум просматривают: нет зарегистрированных пользователей и гости: 0


Вы не можете начинать темы
Вы не можете отвечать на сообщения
Вы не можете редактировать свои сообщения
Вы не можете удалять свои сообщения
Вы не можете добавлять вложения

Перейти:  
cron