Начать новую тему Ответить на тему
Статистика раздачи
Размер: 1.48 ГБ | Добавлен: 01 янв 2020, 23:03 | Скачали: 1
Сидеров: 1  [0 байт/сек]    Личеров: 0  [0 байт/сек]
Пред. тема | След. тема 

Автор
Сообщение

СообщениеДобавлено: 01 янв 2020, 23:03 

Ответить с цитатой 

Edith Piaf - 1998 - 100 Chansons [4CD]
Жанр: Chanson
Страна-производитель диска: France
Год издания диска: 1998
Издатель (лейбл): Disky
Номер по каталогу: HR 889182
Страна: France
Аудиокодек: FLAC (*.flac)
Тип рипа: tracks+.cue
Битрейт аудио: lossless
Продолжительность: 05:10:30
Источник (релизер): вафли, granturco
Наличие сканов в содержимом раздачи: нет
Треклист:
01 - Les momes de la cloche
02 - La java de cezigue
03 - Reste
04 - J'suis mordue
05 - La julie jolie
06 - Les deux menetriers
07 - Mon amant de la coloniale
08 - Il n'est pas distingue
09 - Mon legionnaire
10 - Dans un bouge du vieux port
11 - Le contrebandier
12 - Mon coeur est au coin d'une rue
13 - Correqu 'et reguyer
14 - Paris-Mediterranee
15 - Un jeune homme chantait
16 - C'est toi le plus fort
17 - Tout fout le camp
18 - Le chacal
19 - Partance
20 - Le fanion de la Legion
21 - J'entends la sirene
22 - Madeleine qu 'avait du coeur
23 - C'est lui que mon coeur a choisi
24 - Je n'en connais pas la fin
25 - Elle frequentait la rue Pigalle
01 - Le petit monsieur triste
02 - Les deux copains
03 - Sur une colline
04 - 'Y en a un de trop
05 - Embrasse-moi
06 - Jimmy c'est lui
07 - J'ai dansé avec l'amour
08 - Où sont-ils mes petits copains?
09 - C'était un jour de féte
10 - L'homme des bars
11 - Simple comme bonjour
12 - Un coin tout bleu
13 - Le vagabond
14 - J'ai qu 'à l'regarder
15 - Tu es partout (du film 'Monmartre-sur-Seine')
16 - Le brun et le blond
17 - Le chasseur de l'hotel
18 - Les deux regaines
19 - 'Y a pas d'printemps
20 - Coup de frisou
21 - Les gars qui marchaient
22 - Regarde-moi toujours comme ça
23 - L'escale
24 - De l'autre côté de la rue
25 - Quand même
01 - La vie en rose
02 - Le petit homme (One Little Man)
03 - Céline (avec Les Compagnons de la Chanson)
04 - Le roi a fait battre tambour (avec Les Compagnons de la Chanson)
05 - Dans les prisons de Nantes (avec Les Compagnons de la Chanson)
06 - Adieu mon coeur
07 - Le chante du pirate
08 - C'est merveilleux
09 - Un refrain courait dans la rue
10 - Il pleut
11 - Dany
12 - Bal dans ma rue
13 - Hymne à l'amour (avec les Choers de René Saint-Paul)
14 - La fête continue
15 - Padam...padam
16 - La rue aux chansons (avec les Choers de René Saint-Paul)
17 - Le Noël de la rue
18 - Notre-Dame de Paris
19 - Monsier et madame
20 - Au bal de la chance
21 - Je t'ai dans la peau
22 - Johnny, tu n'es pas un ange
23 - Bravo pour le clown
24 - Soeur Anne
25 - La goualante du pauvre Jean
26 - La petit boutique
01 - Sous le ciel de Paris
02 - Enfin
03 - Sérénade du pavé
04 - L'accordéoniste
05 - Les orgues de barbarie
06 - Kioske à journaux
07 - Bd du crime
08 - La ville inconnue
09 - Le bruit des villes
10 - Les amants
11 - Marie trottoir
12 - Les gens
13 - 'La foule' (live)
14 - Les mots d'amour
15 - Mon Dieu
16 - Mon manège à moi
17 - Le droit d'aimer
18 - Non, je ne regrette rien !
19 - A quoi ça sert l'amour
20 - Milord
21 - Comme moi
22 - C'est à Hambourg
23 - Heureuse
24 - Y avait du soleil
Код:
Exact Audio Copy V0.99 prebeta 5 from 4. May 2009
EAC extraction logfile from 26. June 2010, 17:48
Edith Piaf / 100 Chansons [CD1]
Used drive  : HL-DT-STDVDRAM GMA-4082N   Adapter: 0  ID: 0
Read mode               : Secure
Utilize accurate stream : Yes
Defeat audio cache      : Yes
Make use of C2 pointers : No
Read offset correction                      : 667
Overread into Lead-In and Lead-Out          : No
Fill up missing offset samples with silence : Yes
Delete leading and trailing silent blocks   : No
Null samples used in CRC calculations       : Yes
Used interface                              : Native Win32 interface for Win NT & 2000
Gap handling                                : Appended to previous track
Used output format              : User Defined Encoder
Selected bitrate                : 1024 kBit/s
Quality                         : High
Add ID3 tag                     : No
Command line compressor         : C:\Program Files\Exact Audio Copy\FLAC\FLAC.EXE
Additional command line options : -8 -A tukey(0.25) -A gauss(0.1875) -b 4096 -V -T "artist=%a" -T "title=%t" -T "album=%g" -T "date=%y" -T "tracknumber=%n" -T "genre=%m" %s --sector-align
TOC of the extracted CD
     Track |   Start  |  Length  | Start sector | End sector
    ---------------------------------------------------------
        1  |  0:00.00 |  3:19.33 |         0    |    14957
        2  |  3:19.33 |  3:02.39 |     14958    |    28646
        3  |  6:21.72 |  3:03.40 |     28647    |    42411
        4  |  9:25.37 |  3:03.26 |     42412    |    56162
        5  | 12:28.63 |  3:05.28 |     56163    |    70065
        6  | 15:34.16 |  2:23.66 |     70066    |    80856
        7  | 17:58.07 |  3:11.38 |     80857    |    95219
        8  | 21:09.45 |  2:58.01 |     95220    |   108570
        9  | 24:07.46 |  3:51.32 |    108571    |   125927
       10  | 27:59.03 |  3:03.70 |    125928    |   139722
       11  | 31:02.73 |  2:51.52 |    139723    |   152599
       12  | 33:54.50 |  3:04.09 |    152600    |   166408
       13  | 36:58.59 |  3:14.62 |    166409    |   181020
       14  | 40:13.46 |  3:05.54 |    181021    |   194949
       15  | 43:19.25 |  2:57.19 |    194950    |   208243
       16  | 46:16.44 |  2:31.44 |    208244    |   219612
       17  | 48:48.13 |  2:22.19 |    219613    |   230281
       18  | 51:10.32 |  3:05.36 |    230282    |   244192
       19  | 54:15.68 |  2:37.44 |    244193    |   256011
       20  | 56:53.37 |  3:18.59 |    256012    |   270920
       21  | 60:12.21 |  3:03.33 |    270921    |   284678
       22  | 63:15.54 |  3:19.14 |    284679    |   299617
       23  | 66:34.68 |  3:19.54 |    299618    |   314596
       24  | 69:54.47 |  3:15.59 |    314597    |   329280
       25  | 73:10.31 |  3:32.37 |    329281    |   345217
Track  1
     Filename D:\Nuova cartella\Edith Piaf - 1998 - 100 Chansons [4CD]\CD1\01. Les momes de la cloche.wav
     Pre-gap length  0:00:02.00
     Peak level 99.9 %
     Track quality 100.0 %
     Test CRC 2165BD42
     Copy CRC 2165BD42
     Accurately ripped (confidence 12)  [41BBC4D3]
     Copy OK
Track  2
     Filename D:\Nuova cartella\Edith Piaf - 1998 - 100 Chansons [4CD]\CD1\02. La java de cezigue.wav
     Pre-gap length  0:00:00.89
     Peak level 99.9 %
     Track quality 100.0 %
     Test CRC E9C1E3BC
     Copy CRC E9C1E3BC
     Accurately ripped (confidence 12)  [4DAEFDB1]
     Copy OK
Track  3
     Filename D:\Nuova cartella\Edith Piaf - 1998 - 100 Chansons [4CD]\CD1\03. Reste.wav
     Pre-gap length  0:00:00.89
     Peak level 99.9 %
     Track quality 100.0 %
     Test CRC B3902ADC
     Copy CRC B3902ADC
     Accurately ripped (confidence 12)  [FDF338F9]
     Copy OK
Track  4
     Filename D:\Nuova cartella\Edith Piaf - 1998 - 100 Chansons [4CD]\CD1\04. J'suis mordue.wav
     Pre-gap length  0:00:00.89
     Peak level 79.4 %
     Track quality 100.0 %
     Test CRC EB3D59E7
     Copy CRC EB3D59E7
     Accurately ripped (confidence 12)  [259D32D5]
     Copy OK
Track  5
     Filename D:\Nuova cartella\Edith Piaf - 1998 - 100 Chansons [4CD]\CD1\05. La julie jolie.wav
     Pre-gap length  0:00:00.89
     Peak level 99.9 %
     Track quality 100.0 %
     Test CRC ADE2EB89
     Copy CRC ADE2EB89
     Accurately ripped (confidence 12)  [B203D9C0]
     Copy OK
Track  6
     Filename D:\Nuova cartella\Edith Piaf - 1998 - 100 Chansons [4CD]\CD1\06. Les deux menetriers.wav
     Pre-gap length  0:00:00.89
     Peak level 99.9 %
     Track quality 100.0 %
     Test CRC E8A04450
     Copy CRC E8A04450
     Accurately ripped (confidence 12)  [58B1113C]
     Copy OK
Track  7
     Filename D:\Nuova cartella\Edith Piaf - 1998 - 100 Chansons [4CD]\CD1\07. Mon amant de la coloniale.wav
     Pre-gap length  0:00:00.89
     Peak level 99.9 %
     Track quality 100.0 %
     Test CRC 083716C8
     Copy CRC 083716C8
     Accurately ripped (confidence 12)  [FB864494]
     Copy OK
Track  8
     Filename D:\Nuova cartella\Edith Piaf - 1998 - 100 Chansons [4CD]\CD1\08. Il n'est pas distingue.wav
     Pre-gap length  0:00:00.89
     Peak level 99.9 %
     Track quality 100.0 %
     Test CRC 8C873D80
     Copy CRC 8C873D80
     Accurately ripped (confidence 12)  [35597B76]
     Copy OK
Track  9
     Filename D:\Nuova cartella\Edith Piaf - 1998 - 100 Chansons [4CD]\CD1\09. Mon legionnaire.wav
     Pre-gap length  0:00:00.89
     Peak level 99.9 %
     Track quality 99.9 %
     Test CRC 3CC13B6F
     Copy CRC 3CC13B6F
     Accurately ripped (confidence 12)  [946A0155]
     Copy OK
Track 10
     Filename D:\Nuova cartella\Edith Piaf - 1998 - 100 Chansons [4CD]\CD1\10. Dans un bouge du vieux port.wav
     Pre-gap length  0:00:00.89
     Peak level 99.9 %
     Track quality 99.9 %
     Test CRC 6894C87F
     Copy CRC 6894C87F
     Accurately ripped (confidence 12)  [15BEBBE6]
     Copy OK
Track 11
     Filename D:\Nuova cartella\Edith Piaf - 1998 - 100 Chansons [4CD]\CD1\11. Le contrebandier.wav
     Pre-gap length  0:00:00.89
     Peak level 99.9 %
     Track quality 99.9 %
     Test CRC FEA3AE86
     Copy CRC FEA3AE86
     Accurately ripped (confidence 12)  [32A0B1D2]
     Copy OK
Track 12
     Filename D:\Nuova cartella\Edith Piaf - 1998 - 100 Chansons [4CD]\CD1\12. Mon coeur est au coin d'une rue.wav
     Pre-gap length  0:00:00.89
     Peak level 99.9 %
     Track quality 100.0 %
     Test CRC 100AE697
     Copy CRC 100AE697
     Accurately ripped (confidence 12)  [6499BC5B]
     Copy OK
Track 13
     Filename D:\Nuova cartella\Edith Piaf - 1998 - 100 Chansons [4CD]\CD1\13. Correqu 'et reguyer.wav
     Pre-gap length  0:00:00.89
     Peak level 99.9 %
     Track quality 100.0 %
     Test CRC EE7950CB
     Copy CRC EE7950CB
     Accurately ripped (confidence 12)  [3FA0EE11]
     Copy OK
Track 14
     Filename D:\Nuova cartella\Edith Piaf - 1998 - 100 Chansons [4CD]\CD1\14. Paris-Mediterranee.wav
     Pre-gap length  0:00:00.89
     Peak level 99.9 %
     Track quality 100.0 %
     Test CRC EB99D1B8
     Copy CRC EB99D1B8
     Accurately ripped (confidence 12)  [F9788969]
     Copy OK
Track 15
     Filename D:\Nuova cartella\Edith Piaf - 1998 - 100 Chansons [4CD]\CD1\15. Un jeune homme chantait.wav
     Pre-gap length  0:00:00.89
     Peak level 99.9 %
     Track quality 100.0 %
     Test CRC D8DC7BEF
     Copy CRC D8DC7BEF
     Accurately ripped (confidence 12)  [72ED9BAE]
     Copy OK
Track 16
     Filename D:\Nuova cartella\Edith Piaf - 1998 - 100 Chansons [4CD]\CD1\16. C'est toi le plus fort.wav
     Pre-gap length  0:00:00.89
     Peak level 99.9 %
     Track quality 100.0 %
     Test CRC CAC280C8
     Copy CRC CAC280C8
     Accurately ripped (confidence 12)  [E1F57DFE]
     Copy OK
Track 17
     Filename D:\Nuova cartella\Edith Piaf - 1998 - 100 Chansons [4CD]\CD1\17. Tout fout le camp.wav
     Pre-gap length  0:00:00.89
     Peak level 99.9 %
     Track quality 100.0 %
     Test CRC 7BEF520C
     Copy CRC 7BEF520C
     Accurately ripped (confidence 12)  [8ECFB73A]
     Copy OK
Track 18
     Filename D:\Nuova cartella\Edith Piaf - 1998 - 100 Chansons [4CD]\CD1\18. Le chacal.wav
     Pre-gap length  0:00:00.89
     Peak level 99.9 %
     Track quality 100.0 %
     Test CRC 87511AEF
     Copy CRC 87511AEF
     Accurately ripped (confidence 12)  [8B621D0B]
     Copy OK
Track 19
     Filename D:\Nuova cartella\Edith Piaf - 1998 - 100 Chansons [4CD]\CD1\19. Partance.wav
     Pre-gap length  0:00:00.89
     Peak level 89.1 %
     Track quality 100.0 %
     Test CRC 9EB88852
     Copy CRC 9EB88852
     Accurately ripped (confidence 12)  [B709CF5D]
     Copy OK
Track 20
     Filename D:\Nuova cartella\Edith Piaf - 1998 - 100 Chansons [4CD]\CD1\20. Le fanion de la Legion.wav
     Pre-gap length  0:00:00.89
     Peak level 99.9 %
     Track quality 100.0 %
     Test CRC 82051E14
     Copy CRC 82051E14
     Accurately ripped (confidence 12)  [77D81134]
     Copy OK
Track 21
     Filename D:\Nuova cartella\Edith Piaf - 1998 - 100 Chansons [4CD]\CD1\21. J'entends la sirene.wav
     Pre-gap length  0:00:00.89
     Peak level 99.9 %
     Track quality 100.0 %
     Test CRC F1D17D6B
     Copy CRC F1D17D6B
     Accurately ripped (confidence 12)  [818AEF25]
     Copy OK
Track 22
     Filename D:\Nuova cartella\Edith Piaf - 1998 - 100 Chansons [4CD]\CD1\22. Madeleine qu 'avait du coeur.wav
     Pre-gap length  0:00:00.89
     Peak level 99.9 %
     Track quality 100.0 %
     Test CRC 51A29965
     Copy CRC 51A29965
     Accurately ripped (confidence 12)  [6C81D7E1]
     Copy OK
Track 23
     Filename D:\Nuova cartella\Edith Piaf - 1998 - 100 Chansons [4CD]\CD1\23. C'est lui que mon coeur a choisi.wav
     Pre-gap length  0:00:00.89
     Peak level 89.1 %
     Track quality 100.0 %
     Test CRC 44548A42
     Copy CRC 44548A42
     Accurately ripped (confidence 12)  [327E76F7]
     Copy OK
Track 24
     Filename D:\Nuova cartella\Edith Piaf - 1998 - 100 Chansons [4CD]\CD1\24. Je n'en connais pas la fin.wav
     Pre-gap length  0:00:00.89
     Peak level 79.4 %
     Track quality 100.0 %
     Test CRC 34F42026
     Copy CRC 34F42026
     Accurately ripped (confidence 10)  [6301766F]
     Copy OK
Track 25
     Filename D:\Nuova cartella\Edith Piaf - 1998 - 100 Chansons [4CD]\CD1\25. Elle frequentait la rue Pigalle.wav
     Pre-gap length  0:00:00.89
     Peak level 89.1 %
     Track quality 100.0 %
     Test CRC 4B2A05CB
     Copy CRC 4B2A05CB
     Accurately ripped (confidence 10)  [6B81A1AB]
     Copy OK
All tracks accurately ripped
No errors occurred
End of status report
Код:
Exact Audio Copy V0.99 prebeta 5 from 4. May 2009
EAC extraction logfile from 26. June 2010, 21:24
Edith Piaf / 100 Chansons [CD2]
Used drive  : HL-DT-STDVDRAM GMA-4082N   Adapter: 0  ID: 0
Read mode               : Secure
Utilize accurate stream : Yes
Defeat audio cache      : Yes
Make use of C2 pointers : No
Read offset correction                      : 667
Overread into Lead-In and Lead-Out          : No
Fill up missing offset samples with silence : Yes
Delete leading and trailing silent blocks   : No
Null samples used in CRC calculations       : Yes
Used interface                              : Native Win32 interface for Win NT & 2000
Gap handling                                : Appended to previous track
Used output format              : User Defined Encoder
Selected bitrate                : 1024 kBit/s
Quality                         : High
Add ID3 tag                     : No
Command line compressor         : C:\Program Files\Exact Audio Copy\FLAC\FLAC.EXE
Additional command line options : -8 -A tukey(0.25) -A gauss(0.1875) -b 4096 -V -T "artist=%a" -T "title=%t" -T "album=%g" -T "date=%y" -T "tracknumber=%n" -T "genre=%m" %s --sector-align
TOC of the extracted CD
     Track |   Start  |  Length  | Start sector | End sector
    ---------------------------------------------------------
        1  |  0:00.00 |  2:46.16 |         0    |    12465
        2  |  2:46.16 |  2:54.06 |     12466    |    25521
        3  |  5:40.22 |  2:57.12 |     25522    |    38808
        4  |  8:37.34 |  2:49.23 |     38809    |    51506
        5  | 11:26.57 |  2:52.53 |     51507    |    64459
        6  | 14:19.35 |  2:54.71 |     64460    |    77580
        7  | 17:14.31 |  3:16.05 |     77581    |    92285
        8  | 20:30.36 |  3:29.59 |     92286    |   108019
        9  | 24:00.20 |  3:53.35 |    108020    |   125529
       10  | 27:53.55 |  2:17.25 |    125530    |   135829
       11  | 30:11.05 |  2:55.45 |    135830    |   148999
       12  | 33:06.50 |  2:42.62 |    149000    |   161211
       13  | 35:49.37 |  3:22.54 |    161212    |   176415
       14  | 39:12.16 |  3:11.49 |    176416    |   190789
       15  | 42:23.65 |  2:47.29 |    190790    |   203343
       16  | 45:11.19 |  3:04.52 |    203344    |   217195
       17  | 48:15.71 |  3:35.51 |    217196    |   233371
       18  | 51:51.47 |  3:22.47 |    233372    |   248568
       19  | 55:14.19 |  2:36.27 |    248569    |   260295
       20  | 57:50.46 |  4:18.70 |    260296    |   279715
       21  | 62:09.41 |  3:05.37 |    279716    |   293627
       22  | 65:15.03 |  3:43.36 |    293628    |   310388
       23  | 68:58.39 |  3:26.09 |    310389    |   325847
       24  | 72:24.48 |  3:21.06 |    325848    |   340928
       25  | 75:45.54 |  3:13.00 |    340929    |   355403
Track  1
     Filename D:\Nuova cartella\Edith Piaf - 1998 - 100 Chansons [4CD]\CD2\01. Le petit monsieur triste.wav
     Pre-gap length  0:00:02.00
     Peak level 99.9 %
     Track quality 100.0 %
     Test CRC 8F49DFDE
     Copy CRC 8F49DFDE
     Accurately ripped (confidence 5)  [E648F158]
     Copy OK
Track  2
     Filename D:\Nuova cartella\Edith Piaf - 1998 - 100 Chansons [4CD]\CD2\02. Les deux copains.wav
     Pre-gap length  0:00:00.92
     Peak level 99.9 %
     Track quality 100.0 %
     Test CRC FB1B0F88
     Copy CRC FB1B0F88
     Accurately ripped (confidence 6)  [34EDD4B7]
     Copy OK
Track  3
     Filename D:\Nuova cartella\Edith Piaf - 1998 - 100 Chansons [4CD]\CD2\03. Sur une colline.wav
     Pre-gap length  0:00:00.92
     Peak level 99.9 %
     Track quality 100.0 %
     Test CRC CBCA069B
     Copy CRC CBCA069B
     Accurately ripped (confidence 6)  [9E8615BA]
     Copy OK
Track  4
     Filename D:\Nuova cartella\Edith Piaf - 1998 - 100 Chansons [4CD]\CD2\04. 'Y en a un de trop.wav
     Pre-gap length  0:00:00.92
     Peak level 99.9 %
     Track quality 100.0 %
     Test CRC 13C500E2
     Copy CRC 13C500E2
     Accurately ripped (confidence 6)  [B2A918AF]
     Copy OK
Track  5
     Filename D:\Nuova cartella\Edith Piaf - 1998 - 100 Chansons [4CD]\CD2\05. Embrasse-moi.wav
     Pre-gap length  0:00:00.92
     Peak level 99.9 %
     Track quality 100.0 %
     Test CRC 93403A58
     Copy CRC 93403A58
     Accurately ripped (confidence 6)  [B329A66E]
     Copy OK
Track  6
     Filename D:\Nuova cartella\Edith Piaf - 1998 - 100 Chansons [4CD]\CD2\06. Jimmy c'est lui.wav
     Pre-gap length  0:00:00.92
     Peak level 99.9 %
     Track quality 100.0 %
     Test CRC 5DE1DBCF
     Copy CRC 5DE1DBCF
     Accurately ripped (confidence 6)  [7ABDF96C]
     Copy OK
Track  7
     Filename D:\Nuova cartella\Edith Piaf - 1998 - 100 Chansons [4CD]\CD2\07. J'ai dansй avec l'amour.wav
     Pre-gap length  0:00:00.92
     Peak level 99.9 %
     Track quality 100.0 %
     Test CRC EB09B88A
     Copy CRC EB09B88A
     Accurately ripped (confidence 6)  [C12655BE]
     Copy OK
Track  8
     Filename D:\Nuova cartella\Edith Piaf - 1998 - 100 Chansons [4CD]\CD2\08. Oщ sont-ils mes petits copains .wav
     Pre-gap length  0:00:00.92
     Peak level 99.9 %
     Track quality 100.0 %
     Test CRC D7F6DE0E
     Copy CRC D7F6DE0E
     Accurately ripped (confidence 6)  [26C14440]
     Copy OK
Track  9
     Filename D:\Nuova cartella\Edith Piaf - 1998 - 100 Chansons [4CD]\CD2\09. C'йtait un jour de fйte.wav
     Pre-gap length  0:00:00.92
     Peak level 99.9 %
     Track quality 100.0 %
     Test CRC 2D484850
     Copy CRC 2D484850
     Accurately ripped (confidence 6)  [34BACF32]
     Copy OK
Track 10
     Filename D:\Nuova cartella\Edith Piaf - 1998 - 100 Chansons [4CD]\CD2\10. L'homme des bars.wav
     Pre-gap length  0:00:00.92
     Peak level 99.9 %
     Track quality 100.0 %
     Test CRC EB2127ED
     Copy CRC EB2127ED
     Accurately ripped (confidence 5)  [60349D00]
     Copy OK
Track 11
     Filename D:\Nuova cartella\Edith Piaf - 1998 - 100 Chansons [4CD]\CD2\11. Simple comme bonjour.wav
     Pre-gap length  0:00:00.92
     Peak level 99.9 %
     Track quality 100.0 %
     Test CRC EBA0A10F
     Copy CRC EBA0A10F
     Accurately ripped (confidence 5)  [5E3BAA29]
     Copy OK
Track 12
     Filename D:\Nuova cartella\Edith Piaf - 1998 - 100 Chansons [4CD]\CD2\12. Un coin tout bleu.wav
     Pre-gap length  0:00:00.92
     Peak level 99.9 %
     Track quality 100.0 %
     Test CRC 08610274
     Copy CRC 08610274
     Accurately ripped (confidence 5)  [DEBBB3F6]
     Copy OK
Track 13
     Filename D:\Nuova cartella\Edith Piaf - 1998 - 100 Chansons [4CD]\CD2\13. Le vagabond.wav
     Pre-gap length  0:00:00.92
     Peak level 99.9 %
     Track quality 100.0 %
     Test CRC B8135796
     Copy CRC B8135796
     Accurately ripped (confidence 5)  [22E4738F]
     Copy OK
Track 14
     Filename D:\Nuova cartella\Edith Piaf - 1998 - 100 Chansons [4CD]\CD2\14. J'ai qu 'а l'regarder.wav
     Pre-gap length  0:00:00.92
     Peak level 99.9 %
     Track quality 100.0 %
     Test CRC F99A0E87
     Copy CRC F99A0E87
     Accurately ripped (confidence 6)  [792C83DA]
     Copy OK
Track 15
     Filename D:\Nuova cartella\Edith Piaf - 1998 - 100 Chansons [4CD]\CD2\15. Tu es partout (du film 'Monmartre-sur-Seine').wav
     Pre-gap length  0:00:00.92
     Peak level 99.9 %
     Track quality 100.0 %
     Test CRC 7D54FFB6
     Copy CRC 7D54FFB6
     Accurately ripped (confidence 6)  [388EF5DE]
     Copy OK
Track 16
     Filename D:\Nuova cartella\Edith Piaf - 1998 - 100 Chansons [4CD]\CD2\16. Le brun et le blond.wav
     Pre-gap length  0:00:00.92
     Peak level 99.9 %
     Track quality 100.0 %
     Test CRC 379FA22F
     Copy CRC 379FA22F
     Accurately ripped (confidence 6)  [514556EE]
     Copy OK
Track 17
     Filename D:\Nuova cartella\Edith Piaf - 1998 - 100 Chansons [4CD]\CD2\17. Le chasseur de l'hotel.wav
     Pre-gap length  0:00:00.92
     Peak level 99.9 %
     Track quality 100.0 %
     Test CRC 2FDFA366
     Copy CRC 2FDFA366
     Accurately ripped (confidence 6)  [489E3520]
     Copy OK
Track 18
     Filename D:\Nuova cartella\Edith Piaf - 1998 - 100 Chansons [4CD]\CD2\18. Les deux regaines.wav
     Pre-gap length  0:00:00.92
     Peak level 99.9 %
     Track quality 100.0 %
     Test CRC F2E8D48D
     Copy CRC F2E8D48D
     Accurately ripped (confidence 6)  [90899BC4]
     Copy OK
Track 19
     Filename D:\Nuova cartella\Edith Piaf - 1998 - 100 Chansons [4CD]\CD2\19. 'Y a pas d'printemps.wav
     Pre-gap length  0:00:00.92
     Peak level 99.9 %
     Track quality 100.0 %
     Test CRC 7A7E021D
     Copy CRC 7A7E021D
     Accurately ripped (confidence 6)  [6C1D4E5B]
     Copy OK
Track 20
     Filename D:\Nuova cartella\Edith Piaf - 1998 - 100 Chansons [4CD]\CD2\20. Coup de frisou.wav
     Pre-gap length  0:00:00.92
     Peak level 99.9 %
     Track quality 100.0 %
     Test CRC 36E5B80E
     Copy CRC 36E5B80E
     Accurately ripped (confidence 6)  [932FFE36]
     Copy OK
Track 21
     Filename D:\Nuova cartella\Edith Piaf - 1998 - 100 Chansons [4CD]\CD2\21. Les gars qui marchaient.wav
     Pre-gap length  0:00:00.92
     Peak level 99.9 %
     Track quality 100.0 %
     Test CRC 847FFA07
     Copy CRC 847FFA07
     Accurately ripped (confidence 6)  [C38052CE]
     Copy OK
Track 22
     Filename D:\Nuova cartella\Edith Piaf - 1998 - 100 Chansons [4CD]\CD2\22. Regarde-moi toujours comme зa.wav
     Pre-gap length  0:00:00.92
     Peak level 99.9 %
     Track quality 99.9 %
     Test CRC EE5BBA0E
     Copy CRC EE5BBA0E
     Accurately ripped (confidence 6)  [C578857A]
     Copy OK
Track 23
     Filename D:\Nuova cartella\Edith Piaf - 1998 - 100 Chansons [4CD]\CD2\23. L'escale.wav
     Pre-gap length  0:00:00.92
     Peak level 99.9 %
     Track quality 100.0 %
     Test CRC 75376AB0
     Copy CRC 75376AB0
     Accurately ripped (confidence 6)  [ABE95981]
     Copy OK
Track 24
     Filename D:\Nuova cartella\Edith Piaf - 1998 - 100 Chansons [4CD]\CD2\24. De l'autre cфtй de la rue.wav
     Pre-gap length  0:00:00.92
     Peak level 99.6 %
     Track quality 100.0 %
     Test CRC 69ED364A
     Copy CRC 69ED364A
     Accurately ripped (confidence 6)  [6948CC5B]
     Copy OK
Track 25
     Filename D:\Nuova cartella\Edith Piaf - 1998 - 100 Chansons [4CD]\CD2\25. Quand mкme.wav
     Pre-gap length  0:00:00.92
     Peak level 99.9 %
     Track quality 100.0 %
     Test CRC 7A5B0F9A
     Copy CRC 7A5B0F9A
     Accurately ripped (confidence 6)  [D2E8DEA4]
     Copy OK
All tracks accurately ripped
No errors occurred
End of status report
Код:
Exact Audio Copy V0.99 prebeta 5 from 4. May 2009
EAC extraction logfile from 26. June 2010, 16:47
Edith Piaf / 100 Chansons [CD3]
Used drive  : HL-DT-STDVDRAM GMA-4082N   Adapter: 0  ID: 0
Read mode               : Secure
Utilize accurate stream : Yes
Defeat audio cache      : Yes
Make use of C2 pointers : No
Read offset correction                      : 667
Overread into Lead-In and Lead-Out          : No
Fill up missing offset samples with silence : Yes
Delete leading and trailing silent blocks   : No
Null samples used in CRC calculations       : Yes
Used interface                              : Native Win32 interface for Win NT & 2000
Gap handling                                : Appended to previous track
Used output format              : User Defined Encoder
Selected bitrate                : 1024 kBit/s
Quality                         : High
Add ID3 tag                     : No
Command line compressor         : C:\Program Files\Exact Audio Copy\FLAC\FLAC.EXE
Additional command line options : -8 -A tukey(0.25) -A gauss(0.1875) -b 4096 -V -T "artist=%a" -T "title=%t" -T "album=%g" -T "date=%y" -T "tracknumber=%n" -T "genre=%m" %s --sector-align
TOC of the extracted CD
     Track |   Start  |  Length  | Start sector | End sector
    ---------------------------------------------------------
        1  |  0:00.00 |  3:05.02 |         0    |    13876
        2  |  3:05.02 |  3:34.65 |     13877    |    29991
        3  |  6:39.67 |  3:13.61 |     29992    |    44527
        4  |  9:53.53 |  2:40.33 |     44528    |    56560
        5  | 12:34.11 |  2:30.04 |     56561    |    67814
        6  | 15:04.15 |  3:04.54 |     67815    |    81668
        7  | 18:08.69 |  2:09.51 |     81669    |    91394
        8  | 20:18.45 |  3:04.53 |     91395    |   105247
        9  | 23:23.23 |  3:02.50 |    105248    |   118947
       10  | 26:25.73 |  3:18.51 |    118948    |   133848
       11  | 29:44.49 |  2:41.54 |    133849    |   145977
       12  | 32:26.28 |  2:57.37 |    145978    |   159289
       13  | 35:23.65 |  3:25.63 |    159290    |   174727
       14  | 38:49.53 |  3:05.28 |    174728    |   188630
       15  | 41:55.06 |  3:16.19 |    188631    |   203349
       16  | 45:11.25 |  2:54.44 |    203350    |   216443
       17  | 48:05.69 |  3:20.03 |    216444    |   231446
       18  | 51:25.72 |  3:03.63 |    231447    |   245234
       19  | 54:29.60 |  3:00.22 |    245235    |   258756
       20  | 57:30.07 |  2:54.31 |    258757    |   271837
       21  | 60:24.38 |  2:47.28 |    271838    |   284390
       22  | 63:11.66 |  2:09.48 |    284391    |   294113
       23  | 65:21.39 |  3:05.05 |    294114    |   307993
       24  | 68:26.44 |  3:47.03 |    307994    |   325021
       25  | 72:13.47 |  2:01.45 |    325022    |   334141
       26  | 74:15.17 |  3:18.69 |    334142    |   349060
Track  1
     Filename D:\Nuova cartella\Edith Piaf - 1998 - 100 Chansons [4CD]\CD3\01. La vie en rose.wav
     Pre-gap length  0:00:02.00
     Peak level 85.5 %
     Track quality 100.0 %
     Test CRC 28778B88
     Copy CRC 28778B88
     Accurately ripped (confidence 14)  [03612304]
     Copy OK
Track  2
     Filename D:\Nuova cartella\Edith Piaf - 1998 - 100 Chansons [4CD]\CD3\02. Le petit homme (One Little Man).wav
     Pre-gap length  0:00:00.89
     Peak level 96.0 %
     Track quality 99.9 %
     Test CRC CD35161B
     Copy CRC CD35161B
     Accurately ripped (confidence 14)  [C93C58BD]
     Copy OK
Track  3
     Filename D:\Nuova cartella\Edith Piaf - 1998 - 100 Chansons [4CD]\CD3\03. Cйline (avec Les Compagnons de la Chanson).wav
     Pre-gap length  0:00:00.89
     Peak level 91.7 %
     Track quality 100.0 %
     Test CRC E76A3FF6
     Copy CRC E76A3FF6
     Accurately ripped (confidence 13)  [5E2949FA]
     Copy OK
Track  4
     Filename D:\Nuova cartella\Edith Piaf - 1998 - 100 Chansons [4CD]\CD3\04. Le roi a fait battre tambour (avec Les Compagnons de la Chanson).wav
     Pre-gap length  0:00:00.89
     Peak level 91.9 %
     Track quality 100.0 %
     Test CRC 24398026
     Copy CRC 24398026
     Accurately ripped (confidence 13)  [604FA0AF]
     Copy OK
Track  5
     Filename D:\Nuova cartella\Edith Piaf - 1998 - 100 Chansons [4CD]\CD3\05. Dans les prisons de Nantes (avec Les Compagnons de la Chanson).wav
     Pre-gap length  0:00:00.89
     Peak level 93.0 %
     Track quality 100.0 %
     Test CRC 1E40E4A7
     Copy CRC 1E40E4A7
     Accurately ripped (confidence 14)  [234D41E2]
     Copy OK
Track  6
     Filename D:\Nuova cartella\Edith Piaf - 1998 - 100 Chansons [4CD]\CD3\06. Adieu mon coeur.wav
     Pre-gap length  0:00:00.89
     Peak level 87.3 %
     Track quality 100.0 %
     Test CRC A95EBC1C
     Copy CRC A95EBC1C
     Accurately ripped (confidence 14)  [8BA2CB06]
     Copy OK
Track  7
     Filename D:\Nuova cartella\Edith Piaf - 1998 - 100 Chansons [4CD]\CD3\07. Le chante du pirate.wav
     Pre-gap length  0:00:00.89
     Peak level 96.4 %
     Track quality 100.0 %
     Test CRC 39AD5125
     Copy CRC 39AD5125
     Accurately ripped (confidence 14)  [238A28B7]
     Copy OK
Track  8
     Filename D:\Nuova cartella\Edith Piaf - 1998 - 100 Chansons [4CD]\CD3\08. C'est merveilleux.wav
     Pre-gap length  0:00:00.89
     Peak level 84.7 %
     Track quality 100.0 %
     Test CRC E1FA514F
     Copy CRC E1FA514F
     Accurately ripped (confidence 14)  [5464963F]
     Copy OK
Track  9
     Filename D:\Nuova cartella\Edith Piaf - 1998 - 100 Chansons [4CD]\CD3\09. Un refrain courait dans la rue.wav
     Pre-gap length  0:00:00.89
     Peak level 95.5 %
     Track quality 100.0 %
     Test CRC 51F49127
     Copy CRC 51F49127
     Accurately ripped (confidence 14)  [82A9E80B]
     Copy OK
Track 10
     Filename D:\Nuova cartella\Edith Piaf - 1998 - 100 Chansons [4CD]\CD3\10. Il pleut.wav
     Pre-gap length  0:00:00.89
     Peak level 96.1 %
     Track quality 100.0 %
     Test CRC 6CC396D7
     Copy CRC 6CC396D7
     Accurately ripped (confidence 14)  [284114F4]
     Copy OK
Track 11
     Filename D:\Nuova cartella\Edith Piaf - 1998 - 100 Chansons [4CD]\CD3\11. Dany.wav
     Pre-gap length  0:00:00.89
     Peak level 96.7 %
     Track quality 99.9 %
     Test CRC 5AA2F80D
     Copy CRC 5AA2F80D
     Accurately ripped (confidence 14)  [EE5698E1]
     Copy OK
Track 12
     Filename D:\Nuova cartella\Edith Piaf - 1998 - 100 Chansons [4CD]\CD3\12. Bal dans ma rue.wav
     Pre-gap length  0:00:00.89
     Peak level 99.0 %
     Track quality 100.0 %
     Test CRC 0C9C9F6A
     Copy CRC 0C9C9F6A
     Accurately ripped (confidence 14)  [58D5DDE9]
     Copy OK
Track 13
     Filename D:\Nuova cartella\Edith Piaf - 1998 - 100 Chansons [4CD]\CD3\13. Hymne а l'amour (avec les Choers de Renй Saint-Paul).wav
     Pre-gap length  0:00:00.89
     Peak level 99.9 %
     Track quality 100.0 %
     Test CRC 714AD3A5
     Copy CRC 714AD3A5
     Accurately ripped (confidence 14)  [A68B32D6]
     Copy OK
Track 14
     Filename D:\Nuova cartella\Edith Piaf - 1998 - 100 Chansons [4CD]\CD3\14. La fкte continue.wav
     Pre-gap length  0:00:00.89
     Peak level 99.9 %
     Track quality 100.0 %
     Test CRC 70A7DE6E
     Copy CRC 70A7DE6E
     Accurately ripped (confidence 14)  [071DA48A]
     Copy OK
Track 15
     Filename D:\Nuova cartella\Edith Piaf - 1998 - 100 Chansons [4CD]\CD3\15. Padam...padam.wav
     Pre-gap length  0:00:00.89
     Peak level 84.1 %
     Track quality 99.9 %
     Test CRC 16E653F4
     Copy CRC 16E653F4
     Accurately ripped (confidence 14)  [EC8B38A8]
     Copy OK
Track 16
     Filename D:\Nuova cartella\Edith Piaf - 1998 - 100 Chansons [4CD]\CD3\16. La rue aux chansons (avec les Choers de Renй Saint-Paul).wav
     Pre-gap length  0:00:00.89
     Peak level 99.4 %
     Track quality 100.0 %
     Test CRC E26290B8
     Copy CRC E26290B8
     Accurately ripped (confidence 14)  [D2C2F520]
     Copy OK
Track 17
     Filename D:\Nuova cartella\Edith Piaf - 1998 - 100 Chansons [4CD]\CD3\17. Le Noлl de la rue.wav
     Pre-gap length  0:00:00.89
     Peak level 99.3 %
     Track quality 100.0 %
     Test CRC FB0B4DA4
     Copy CRC FB0B4DA4
     Accurately ripped (confidence 14)  [FDB89E12]
     Copy OK
Track 18
     Filename D:\Nuova cartella\Edith Piaf - 1998 - 100 Chansons [4CD]\CD3\18. Notre-Dame de Paris.wav
     Pre-gap length  0:00:00.89
     Peak level 93.5 %
     Track quality 100.0 %
     Test CRC F1C95D48
     Copy CRC F1C95D48
     Accurately ripped (confidence 14)  [7C9D8D53]
     Copy OK
Track 19
     Filename D:\Nuova cartella\Edith Piaf - 1998 - 100 Chansons [4CD]\CD3\19. Monsier et madame.wav
     Pre-gap length  0:00:00.89
     Peak level 99.9 %
     Track quality 99.9 %
     Test CRC 54C4BC8C
     Copy CRC 54C4BC8C
     Accurately ripped (confidence 14)  [676E0F9F]
     Copy OK
Track 20
     Filename D:\Nuova cartella\Edith Piaf - 1998 - 100 Chansons [4CD]\CD3\20. Au bal de la chance.wav
     Pre-gap length  0:00:00.89
     Peak level 79.4 %
     Track quality 100.0 %
     Test CRC ABA89C19
     Copy CRC ABA89C19
     Accurately ripped (confidence 14)  [4F774A06]
     Copy OK
Track 21
     Filename D:\Nuova cartella\Edith Piaf - 1998 - 100 Chansons [4CD]\CD3\21. Je t'ai dans la peau.wav
     Pre-gap length  0:00:00.89
     Peak level 99.8 %
     Track quality 99.9 %
     Test CRC 15682071
     Copy CRC 15682071
     Accurately ripped (confidence 14)  [134B140C]
     Copy OK
Track 22
     Filename D:\Nuova cartella\Edith Piaf - 1998 - 100 Chansons [4CD]\CD3\22. Johnny, tu n'es pas un ange.wav
     Pre-gap length  0:00:00.89
     Peak level 79.4 %
     Track quality 100.0 %
     Test CRC 22D156D1
     Copy CRC 22D156D1
     Accurately ripped (confidence 14)  [62B85B4B]
     Copy OK
Track 23
     Filename D:\Nuova cartella\Edith Piaf - 1998 - 100 Chansons [4CD]\CD3\23. Bravo pour le clown.wav
     Pre-gap length  0:00:00.89
     Peak level 89.1 %
     Track quality 100.0 %
     Test CRC ECBDAAEA
     Copy CRC ECBDAAEA
     Accurately ripped (confidence 14)  [6EE584DE]
     Copy OK
Track 24
     Filename D:\Nuova cartella\Edith Piaf - 1998 - 100 Chansons [4CD]\CD3\24. Soeur Anne.wav
     Pre-gap length  0:00:00.89
     Peak level 79.4 %
     Track quality 100.0 %
     Test CRC 5A70470D
     Copy CRC 5A70470D
     Accurately ripped (confidence 14)  [73F7155F]
     Copy OK
Track 25
     Filename D:\Nuova cartella\Edith Piaf - 1998 - 100 Chansons [4CD]\CD3\25. La goualante du pauvre Jean.wav
     Pre-gap length  0:00:00.89
     Peak level 99.9 %
     Track quality 100.0 %
     Test CRC 3FE538FC
     Copy CRC 3FE538FC
     Accurately ripped (confidence 14)  [9EF7E2E0]
     Copy OK
Track 26
     Filename D:\Nuova cartella\Edith Piaf - 1998 - 100 Chansons [4CD]\CD3\26. La petit boutique.wav
     Pre-gap length  0:00:00.89
     Peak level 99.9 %
     Track quality 99.9 %
     Test CRC 0702EA8F
     Copy CRC 0702EA8F
     Accurately ripped (confidence 13)  [DE48E862]
     Copy OK
All tracks accurately ripped
No errors occurred
End of status report
Код:
Exact Audio Copy V0.99 prebeta 5 from 4. May 2009
EAC extraction logfile from 26. June 2010, 20:12
Edith Piaf / 100 Chansons [CD4]
Used drive  : HL-DT-STDVDRAM GMA-4082N   Adapter: 0  ID: 0
Read mode               : Secure
Utilize accurate stream : Yes
Defeat audio cache      : Yes
Make use of C2 pointers : No
Read offset correction                      : 667
Overread into Lead-In and Lead-Out          : No
Fill up missing offset samples with silence : Yes
Delete leading and trailing silent blocks   : No
Null samples used in CRC calculations       : Yes
Used interface                              : Native Win32 interface for Win NT & 2000
Gap handling                                : Appended to previous track
Used output format              : User Defined Encoder
Selected bitrate                : 1024 kBit/s
Quality                         : High
Add ID3 tag                     : No
Command line compressor         : C:\Program Files\Exact Audio Copy\FLAC\FLAC.EXE
Additional command line options : -8 -A tukey(0.25) -A gauss(0.1875) -b 4096 -V -T "artist=%a" -T "title=%t" -T "album=%g" -T "date=%y" -T "tracknumber=%n" -T "genre=%m" %s --sector-align
TOC of the extracted CD
     Track |   Start  |  Length  | Start sector | End sector
    ---------------------------------------------------------
        1  |  0:00.00 |  3:23.23 |         0    |    15247
        2  |  3:23.23 |  2:31.72 |     15248    |    26644
        3  |  5:55.20 |  3:37.24 |     26645    |    42943
        4  |  9:32.44 |  3:35.50 |     42944    |    59118
        5  | 13:08.19 |  2:41.27 |     59119    |    71220
        6  | 15:49.46 |  2:10.36 |     71221    |    81006
        7  | 18:00.07 |  3:03.02 |     81007    |    94733
        8  | 21:03.09 |  3:50.43 |     94734    |   112026
        9  | 24:53.52 |  3:30.35 |    112027    |   127811
       10  | 28:24.12 |  3:53.60 |    127812    |   145346
       11  | 32:17.72 |  2:21.70 |    145347    |   155991
       12  | 34:39.67 |  3:28.53 |    155992    |   171644
       13  | 38:08.45 |  3:09.45 |    171645    |   185864
       14  | 41:18.15 |  3:23.08 |    185865    |   201097
       15  | 44:41.23 |  3:17.68 |    201098    |   215940
       16  | 47:59.16 |  3:00.45 |    215941    |   229485
       17  | 50:59.61 |  3:34.40 |    229486    |   245575
       18  | 54:34.26 |  2:29.42 |    245576    |   256792
       19  | 57:03.68 |  2:48.42 |    256793    |   269434
       20  | 59:52.35 |  4:51.33 |    269435    |   291292
       21  | 64:43.68 |  2:54.31 |    291293    |   304373
       22  | 67:38.24 |  3:14.13 |    304374    |   318936
       23  | 70:52.37 |  3:03.60 |    318937    |   332721
       24  | 73:56.22 |  3:17.58 |    332722    |   347554
Track  1
     Filename D:\Nuova cartella\Edith Piaf - 1998 - 100 Chansons [4CD]\CD4\01. Sous le ciel de Paris.wav
     Pre-gap length  0:00:02.00
     Peak level 99.9 %
     Track quality 100.0 %
     Test CRC B564FBD5
     Copy CRC B564FBD5
     Accurately ripped (confidence 14)  [A5CF857B]
     Copy OK
Track  2
     Filename D:\Nuova cartella\Edith Piaf - 1998 - 100 Chansons [4CD]\CD4\02. Enfin.wav
     Pre-gap length  0:00:00.89
     Peak level 99.9 %
     Track quality 100.0 %
     Test CRC 17F12B22
     Copy CRC 17F12B22
     Accurately ripped (confidence 14)  [54C539B1]
     Copy OK
Track  3
     Filename D:\Nuova cartella\Edith Piaf - 1998 - 100 Chansons [4CD]\CD4\03. Sйrйnade du pavй.wav
     Pre-gap length  0:00:00.89
     Peak level 99.9 %
     Track quality 100.0 %
     Test CRC B8053C23
     Copy CRC B8053C23
     Accurately ripped (confidence 14)  [855860A1]
     Copy OK
Track  4
     Filename D:\Nuova cartella\Edith Piaf - 1998 - 100 Chansons [4CD]\CD4\04. L'accordйoniste.wav
     Pre-gap length  0:00:00.89
     Peak level 99.9 %
     Track quality 100.0 %
     Test CRC C6D55782
     Copy CRC C6D55782
     Accurately ripped (confidence 14)  [4CC75DBC]
     Copy OK
Track  5
     Filename D:\Nuova cartella\Edith Piaf - 1998 - 100 Chansons [4CD]\CD4\05. Les orgues de barbarie.wav
     Pre-gap length  0:00:00.90
     Peak level 99.9 %
     Track quality 99.9 %
     Test CRC E4EB1B45
     Copy CRC E4EB1B45
     Accurately ripped (confidence 14)  [A70863E4]
     Copy OK
Track  6
     Filename D:\Nuova cartella\Edith Piaf - 1998 - 100 Chansons [4CD]\CD4\06. Kioske а journaux.wav
     Pre-gap length  0:00:00.89
     Peak level 99.9 %
     Track quality 99.9 %
     Test CRC F87D29FC
     Copy CRC F87D29FC
     Accurately ripped (confidence 14)  [8536B2D7]
     Copy OK
Track  7
     Filename D:\Nuova cartella\Edith Piaf - 1998 - 100 Chansons [4CD]\CD4\07. Bd du crime.wav
     Pre-gap length  0:00:00.89
     Peak level 99.9 %
     Track quality 100.0 %
     Test CRC C635BA0A
     Copy CRC C635BA0A
     Accurately ripped (confidence 14)  [889D3B75]
     Copy OK
Track  8
     Filename D:\Nuova cartella\Edith Piaf - 1998 - 100 Chansons [4CD]\CD4\08. La ville inconnue.wav
     Pre-gap length  0:00:00.89
     Peak level 79.4 %
     Track quality 100.0 %
     Test CRC 0CB8161B
     Copy CRC 0CB8161B
     Accurately ripped (confidence 14)  [DB574AB7]
     Copy OK
Track  9
     Filename D:\Nuova cartella\Edith Piaf - 1998 - 100 Chansons [4CD]\CD4\09. Le bruit des villes.wav
     Pre-gap length  0:00:00.89
     Peak level 99.9 %
     Track quality 100.0 %
     Test CRC E1CF1527
     Copy CRC E1CF1527
     Accurately ripped (confidence 14)  [C1FE9956]
     Copy OK
Track 10
     Filename D:\Nuova cartella\Edith Piaf - 1998 - 100 Chansons [4CD]\CD4\10. Les amants.wav
     Pre-gap length  0:00:00.89
     Peak level 99.9 %
     Track quality 100.0 %
     Test CRC D8747E89
     Copy CRC D8747E89
     Accurately ripped (confidence 14)  [2CE124BD]
     Copy OK
Track 11
     Filename D:\Nuova cartella\Edith Piaf - 1998 - 100 Chansons [4CD]\CD4\11. Marie trottoir.wav
     Pre-gap length  0:00:00.89
     Peak level 99.8 %
     Track quality 100.0 %
     Test CRC 6C02D208
     Copy CRC 6C02D208
     Accurately ripped (confidence 14)  [46FD2A23]
     Copy OK
Track 12
     Filename D:\Nuova cartella\Edith Piaf - 1998 - 100 Chansons [4CD]\CD4\12. Les gens.wav
     Pre-gap length  0:00:00.89
     Peak level 98.9 %
     Track quality 100.0 %
     Test CRC 9A629B2A
     Copy CRC 9A629B2A
     Accurately ripped (confidence 14)  [E5E8E9C8]
     Copy OK
Track 13
     Filename D:\Nuova cartella\Edith Piaf - 1998 - 100 Chansons [4CD]\CD4\13. 'La foule'  (live).wav
     Pre-gap length  0:00:00.89
     Peak level 99.9 %
     Track quality 99.9 %
     Test CRC 1FA57861
     Copy CRC 1FA57861
     Accurately ripped (confidence 14)  [BE7D6F80]
     Copy OK
Track 14
     Filename D:\Nuova cartella\Edith Piaf - 1998 - 100 Chansons [4CD]\CD4\14. Les mots d'amour.wav
     Pre-gap length  0:00:00.89
     Peak level 99.9 %
     Track quality 100.0 %
     Test CRC B7BCADCA
     Copy CRC B7BCADCA
     Accurately ripped (confidence 14)  [49F41EAE]
     Copy OK
Track 15
     Filename D:\Nuova cartella\Edith Piaf - 1998 - 100 Chansons [4CD]\CD4\15. Mon Dieu.wav
     Pre-gap length  0:00:00.89
     Peak level 99.9 %
     Track quality 99.9 %
     Test CRC 0B8B7CAD
     Copy CRC 0B8B7CAD
     Accurately ripped (confidence 14)  [2101F41D]
     Copy OK
Track 16
     Filename D:\Nuova cartella\Edith Piaf - 1998 - 100 Chansons [4CD]\CD4\16. Mon manиge а moi.wav
     Pre-gap length  0:00:00.89
     Peak level 99.9 %
     Track quality 100.0 %
     Test CRC D8D0684C
     Copy CRC D8D0684C
     Accurately ripped (confidence 14)  [B73985B4]
     Copy OK
Track 17
     Filename D:\Nuova cartella\Edith Piaf - 1998 - 100 Chansons [4CD]\CD4\17. Le droit d'aimer.wav
     Pre-gap length  0:00:00.89
     Peak level 99.9 %
     Track quality 99.9 %
     Test CRC 21BA8812
     Copy CRC 21BA8812
     Accurately ripped (confidence 14)  [EF5B3D62]
     Copy OK
Track 18
     Filename D:\Nuova cartella\Edith Piaf - 1998 - 100 Chansons [4CD]\CD4\18. Non, je ne regrette rien !.wav
     Pre-gap length  0:00:00.89
     Peak level 99.9 %
     Track quality 100.0 %
     Test CRC EC1D5390
     Copy CRC EC1D5390
     Accurately ripped (confidence 14)  [C6CB3C4F]
     Copy OK
Track 19
     Filename D:\Nuova cartella\Edith Piaf - 1998 - 100 Chansons [4CD]\CD4\19. A quoi зa sert l'amour.wav
     Pre-gap length  0:00:00.89
     Peak level 99.9 %
     Track quality 100.0 %
     Test CRC A81DE931
     Copy CRC A81DE931
     Accurately ripped (confidence 14)  [6FA3EF32]
     Copy OK
Track 20
     Filename D:\Nuova cartella\Edith Piaf - 1998 - 100 Chansons [4CD]\CD4\20. Milord.wav
     Pre-gap length  0:00:00.89
     Peak level 99.9 %
     Track quality 100.0 %
     Test CRC 08EEC5B4
     Copy CRC 08EEC5B4
     Accurately ripped (confidence 14)  [4CAA6486]
     Copy OK
Track 21
     Filename D:\Nuova cartella\Edith Piaf - 1998 - 100 Chansons [4CD]\CD4\21. Comme moi.wav
     Pre-gap length  0:00:00.89
     Peak level 99.9 %
     Track quality 100.0 %
     Test CRC 36184E9B
     Copy CRC 36184E9B
     Accurately ripped (confidence 14)  [414B8B89]
     Copy OK
Track 22
     Filename D:\Nuova cartella\Edith Piaf - 1998 - 100 Chansons [4CD]\CD4\22. C'est а Hambourg.wav
     Pre-gap length  0:00:00.89
     Peak level 99.9 %
     Track quality 100.0 %
     Test CRC BBDF7778
     Copy CRC BBDF7778
     Accurately ripped (confidence 14)  [AA463C4D]
     Copy OK
Track 23
     Filename D:\Nuova cartella\Edith Piaf - 1998 - 100 Chansons [4CD]\CD4\23. Heureuse.wav
     Pre-gap length  0:00:00.89
     Peak level 99.9 %
     Track quality 100.0 %
     Test CRC 115CC5BE
     Copy CRC 115CC5BE
     Accurately ripped (confidence 13)  [3F09E1E7]
     Copy OK
Track 24
     Filename D:\Nuova cartella\Edith Piaf - 1998 - 100 Chansons [4CD]\CD4\24. Y avait du soleil.wav
     Pre-gap length  0:00:00.89
     Peak level 99.9 %
     Track quality 100.0 %
     Test CRC 68012C16
     Copy CRC 68012C16
     Accurately ripped (confidence 13)  [68A4764E]
     Copy OK
All tracks accurately ripped
No errors occurred
End of status report
Код:
REM GENRE Chanson
REM DATE 1998
REM DISCID 6C11FA19
REM COMMENT "ExactAudioCopy v0.99pb5"
PERFORMER "Edith Piaf"
TITLE "100 Chansons [CD1]"
FILE "01. Les momes de la cloche.wav" WAVE
  TRACK 01 AUDIO
    TITLE "Les momes de la cloche"
    PERFORMER "Edith Piaf"
    FLAGS DCP
    INDEX 01 00:00:00
  TRACK 02 AUDIO
    TITLE "La java de cezigue"
    PERFORMER "Edith Piaf"
    FLAGS DCP
    INDEX 00 03:18:41
FILE "02. La java de cezigue.wav" WAVE
    INDEX 01 00:00:00
  TRACK 03 AUDIO
    TITLE "Reste"
    PERFORMER "Edith Piaf"
    FLAGS DCP
    INDEX 00 03:01:47
FILE "03. Reste.wav" WAVE
    INDEX 01 00:00:00
  TRACK 04 AUDIO
    TITLE "J'suis mordue"
    PERFORMER "Edith Piaf"
    FLAGS DCP
    INDEX 00 03:02:48
FILE "04. J'suis mordue.wav" WAVE
    INDEX 01 00:00:00
  TRACK 05 AUDIO
    TITLE "La julie jolie"
    PERFORMER "Edith Piaf"
    FLAGS DCP
    INDEX 00 03:02:34
FILE "05. La julie jolie.wav" WAVE
    INDEX 01 00:00:00
  TRACK 06 AUDIO
    TITLE "Les deux menetriers"
    PERFORMER "Edith Piaf"
    FLAGS DCP
    INDEX 00 03:04:36
FILE "06. Les deux menetriers.wav" WAVE
    INDEX 01 00:00:00
  TRACK 07 AUDIO
    TITLE "Mon amant de la coloniale"
    PERFORMER "Edith Piaf"
    FLAGS DCP
    INDEX 00 02:22:74
FILE "07. Mon amant de la coloniale.wav" WAVE
    INDEX 01 00:00:00
  TRACK 08 AUDIO
    TITLE "Il n'est pas distingue"
    PERFORMER "Edith Piaf"
    FLAGS DCP
    INDEX 00 03:10:46
FILE "08. Il n'est pas distingue.wav" WAVE
    INDEX 01 00:00:00
  TRACK 09 AUDIO
    TITLE "Mon legionnaire"
    PERFORMER "Edith Piaf"
    FLAGS DCP
    INDEX 00 02:57:09
FILE "09. Mon legionnaire.wav" WAVE
    INDEX 01 00:00:00
  TRACK 10 AUDIO
    TITLE "Dans un bouge du vieux port"
    PERFORMER "Edith Piaf"
    FLAGS DCP
    INDEX 00 03:50:40
FILE "10. Dans un bouge du vieux port.wav" WAVE
    INDEX 01 00:00:00
  TRACK 11 AUDIO
    TITLE "Le contrebandier"
    PERFORMER "Edith Piaf"
    FLAGS DCP
    INDEX 00 03:03:03
FILE "11. Le contrebandier.wav" WAVE
    INDEX 01 00:00:00
  TRACK 12 AUDIO
    TITLE "Mon coeur est au coin d'une rue"
    PERFORMER "Edith Piaf"
    FLAGS DCP
    INDEX 00 02:50:60
FILE "12. Mon coeur est au coin d'une rue.wav" WAVE
    INDEX 01 00:00:00
  TRACK 13 AUDIO
    TITLE "Correqu 'et reguyer"
    PERFORMER "Edith Piaf"
    FLAGS DCP
    INDEX 00 03:03:17
FILE "13. Correqu 'et reguyer.wav" WAVE
    INDEX 01 00:00:00
  TRACK 14 AUDIO
    TITLE "Paris-Mediterranee"
    PERFORMER "Edith Piaf"
    FLAGS DCP
    INDEX 00 03:13:70
FILE "14. Paris-Mediterranee.wav" WAVE
    INDEX 01 00:00:00
  TRACK 15 AUDIO
    TITLE "Un jeune homme chantait"
    PERFORMER "Edith Piaf"
    FLAGS DCP
    INDEX 00 03:04:62
FILE "15. Un jeune homme chantait.wav" WAVE
    INDEX 01 00:00:00
  TRACK 16 AUDIO
    TITLE "C'est toi le plus fort"
    PERFORMER "Edith Piaf"
    FLAGS DCP
    INDEX 00 02:56:27
FILE "16. C'est toi le plus fort.wav" WAVE
    INDEX 01 00:00:00
  TRACK 17 AUDIO
    TITLE "Tout fout le camp"
    PERFORMER "Edith Piaf"
    FLAGS DCP
    INDEX 00 02:30:52
FILE "17. Tout fout le camp.wav" WAVE
    INDEX 01 00:00:00
  TRACK 18 AUDIO
    TITLE "Le chacal"
    PERFORMER "Edith Piaf"
    FLAGS DCP
    INDEX 00 02:21:27
FILE "18. Le chacal.wav" WAVE
    INDEX 01 00:00:00
  TRACK 19 AUDIO
    TITLE "Partance"
    PERFORMER "Edith Piaf"
    FLAGS DCP
    INDEX 00 03:04:44
FILE "19. Partance.wav" WAVE
    INDEX 01 00:00:00
  TRACK 20 AUDIO
    TITLE "Le fanion de la Legion"
    PERFORMER "Edith Piaf"
    FLAGS DCP
    INDEX 00 02:36:52
FILE "20. Le fanion de la Legion.wav" WAVE
    INDEX 01 00:00:00
  TRACK 21 AUDIO
    TITLE "J'entends la sirene"
    PERFORMER "Edith Piaf"
    FLAGS DCP
    INDEX 00 03:17:67
FILE "21. J'entends la sirene.wav" WAVE
    INDEX 01 00:00:00
  TRACK 22 AUDIO
    TITLE "Madeleine qu 'avait du coeur"
    PERFORMER "Edith Piaf"
    FLAGS DCP
    INDEX 00 03:02:41
FILE "22. Madeleine qu 'avait du coeur.wav" WAVE
    INDEX 01 00:00:00
  TRACK 23 AUDIO
    TITLE "C'est lui que mon coeur a choisi"
    PERFORMER "Edith Piaf"
    FLAGS DCP
    INDEX 00 03:18:22
FILE "23. C'est lui que mon coeur a choisi.wav" WAVE
    INDEX 01 00:00:00
  TRACK 24 AUDIO
    TITLE "Je n'en connais pas la fin"
    PERFORMER "Edith Piaf"
    FLAGS DCP
    INDEX 00 03:18:62
FILE "24. Je n'en connais pas la fin.wav" WAVE
    INDEX 01 00:00:00
  TRACK 25 AUDIO
    TITLE "Elle frequentait la rue Pigalle"
    PERFORMER "Edith Piaf"
    FLAGS DCP
    INDEX 00 03:14:67
FILE "25. Elle frequentait la rue Pigalle.wav" WAVE
    INDEX 01 00:00:00
Код:
REM GENRE Chanson
REM DATE 1998
REM DISCID 69128219
REM COMMENT "ExactAudioCopy v0.99pb5"
PERFORMER "Edith Piaf"
TITLE "100 Chansons [CD2]"
FILE "01. Le petit monsieur triste.wav" WAVE
  TRACK 01 AUDIO
    TITLE "Le petit monsieur triste"
    PERFORMER "Edith Piaf"
    FLAGS DCP
    INDEX 01 00:00:00
  TRACK 02 AUDIO
    TITLE "Les deux copains"
    PERFORMER "Edith Piaf"
    FLAGS DCP
    INDEX 00 02:45:22
FILE "02. Les deux copains.wav" WAVE
    INDEX 01 00:00:00
  TRACK 03 AUDIO
    TITLE "Sur une colline"
    PERFORMER "Edith Piaf"
    FLAGS DCP
    INDEX 00 02:53:12
FILE "03. Sur une colline.wav" WAVE
    INDEX 01 00:00:00
  TRACK 04 AUDIO
    TITLE "'Y en a un de trop"
    PERFORMER "Edith Piaf"
    FLAGS DCP
    INDEX 00 02:56:18
FILE "04. 'Y en a un de trop.wav" WAVE
    INDEX 01 00:00:00
  TRACK 05 AUDIO
    TITLE "Embrasse-moi"
    PERFORMER "Edith Piaf"
    FLAGS DCP
    INDEX 00 02:48:29
FILE "05. Embrasse-moi.wav" WAVE
    INDEX 01 00:00:00
  TRACK 06 AUDIO
    TITLE "Jimmy c'est lui"
    PERFORMER "Edith Piaf"
    FLAGS DCP
    INDEX 00 02:51:59
FILE "06. Jimmy c'est lui.wav" WAVE
    INDEX 01 00:00:00
  TRACK 07 AUDIO
    TITLE "J'ai dansй avec l'amour"
    PERFORMER "Edith Piaf"
    FLAGS DCP
    INDEX 00 02:54:02
FILE "07. J'ai dansй avec l'amour.wav" WAVE
    INDEX 01 00:00:00
  TRACK 08 AUDIO
    TITLE "Oщ sont-ils mes petits copains?"
    PERFORMER "Edith Piaf"
    FLAGS DCP
    INDEX 00 03:15:11
FILE "08. Oщ sont-ils mes petits copains .wav" WAVE
    INDEX 01 00:00:00
  TRACK 09 AUDIO
    TITLE "C'йtait un jour de fйte"
    PERFORMER "Edith Piaf"
    FLAGS DCP
    INDEX 00 03:28:65
FILE "09. C'йtait un jour de fйte.wav" WAVE
    INDEX 01 00:00:00
  TRACK 10 AUDIO
    TITLE "L'homme des bars"
    PERFORMER "Edith Piaf"
    FLAGS DCP
    INDEX 00 03:52:41
FILE "10. L'homme des bars.wav" WAVE
    INDEX 01 00:00:00
  TRACK 11 AUDIO
    TITLE "Simple comme bonjour"
    PERFORMER "Edith Piaf"
    FLAGS DCP
    INDEX 00 02:16:31
FILE "11. Simple comme bonjour.wav" WAVE
    INDEX 01 00:00:00
  TRACK 12 AUDIO
    TITLE "Un coin tout bleu"
    PERFORMER "Edith Piaf"
    FLAGS DCP
    INDEX 00 02:54:51
FILE "12. Un coin tout bleu.wav" WAVE
    INDEX 01 00:00:00
  TRACK 13 AUDIO
    TITLE "Le vagabond"
    PERFORMER "Edith Piaf"
    FLAGS DCP
    INDEX 00 02:41:68
FILE "13. Le vagabond.wav" WAVE
    INDEX 01 00:00:00
  TRACK 14 AUDIO
    TITLE "J'ai qu 'а l'regarder"
    PERFORMER "Edith Piaf"
    FLAGS DCP
    INDEX 00 03:21:60
FILE "14. J'ai qu 'а l'regarder.wav" WAVE
    INDEX 01 00:00:00
  TRACK 15 AUDIO
    TITLE "Tu es partout (du film 'Monmartre-sur-Seine')"
    PERFORMER "Edith Piaf"
    FLAGS DCP
    INDEX 00 03:10:55
FILE "15. Tu es partout (du film 'Monmartre-sur-Seine').wav" WAVE
    INDEX 01 00:00:00
  TRACK 16 AUDIO
    TITLE "Le brun et le blond"
    PERFORMER "Edith Piaf"
    FLAGS DCP
    INDEX 00 02:46:35
FILE "16. Le brun et le blond.wav" WAVE
    INDEX 01 00:00:00
  TRACK 17 AUDIO
    TITLE "Le chasseur de l'hotel"
    PERFORMER "Edith Piaf"
    FLAGS DCP
    INDEX 00 03:03:58
FILE "17. Le chasseur de l'hotel.wav" WAVE
    INDEX 01 00:00:00
  TRACK 18 AUDIO
    TITLE "Les deux regaines"
    PERFORMER "Edith Piaf"
    FLAGS DCP
    INDEX 00 03:34:57
FILE "18. Les deux regaines.wav" WAVE
    INDEX 01 00:00:00
  TRACK 19 AUDIO
    TITLE "'Y a pas d'printemps"
    PERFORMER "Edith Piaf"
    FLAGS DCP
    INDEX 00 03:21:53
FILE "19. 'Y a pas d'printemps.wav" WAVE
    INDEX 01 00:00:00
  TRACK 20 AUDIO
    TITLE "Coup de frisou"
    PERFORMER "Edith Piaf"
    FLAGS DCP
    INDEX 00 02:35:33
FILE "20. Coup de frisou.wav" WAVE
    INDEX 01 00:00:00
  TRACK 21 AUDIO
    TITLE "Les gars qui marchaient"
    PERFORMER "Edith Piaf"
    FLAGS DCP
    INDEX 00 04:18:01
FILE "21. Les gars qui marchaient.wav" WAVE
    INDEX 01 00:00:00
  TRACK 22 AUDIO
    TITLE "Regarde-moi toujours comme зa"
    PERFORMER "Edith Piaf"
    FLAGS DCP
    INDEX 00 03:04:43
FILE "22. Regarde-moi toujours comme зa.wav" WAVE
    INDEX 01 00:00:00
  TRACK 23 AUDIO
    TITLE "L'escale"
    PERFORMER "Edith Piaf"
    FLAGS DCP
    INDEX 00 03:42:42
FILE "23. L'escale.wav" WAVE
    INDEX 01 00:00:00
  TRACK 24 AUDIO
    TITLE "De l'autre cфtй de la rue"
    PERFORMER "Edith Piaf"
    FLAGS DCP
    INDEX 00 03:25:15
FILE "24. De l'autre cфtй de la rue.wav" WAVE
    INDEX 01 00:00:00
  TRACK 25 AUDIO
    TITLE "Quand mкme"
    PERFORMER "Edith Piaf"
    FLAGS DCP
    INDEX 00 03:20:12
FILE "25. Quand mкme.wav" WAVE
    INDEX 01 00:00:00
Код:
REM GENRE Chanson
REM DATE 1998
REM DISCID 83122E1A
REM COMMENT "ExactAudioCopy v0.99pb5"
PERFORMER "Edith Piaf"
TITLE "100 Chansons [CD3]"
FILE "01. La vie en rose.wav" WAVE
  TRACK 01 AUDIO
    TITLE "La vie en rose"
    PERFORMER "Edith Piaf"
    FLAGS DCP
    INDEX 01 00:00:00
  TRACK 02 AUDIO
    TITLE "Le petit homme (One Little Man)"
    PERFORMER "Edith Piaf"
    FLAGS DCP
    INDEX 00 03:04:10
FILE "02. Le petit homme (One Little Man).wav" WAVE
    INDEX 01 00:00:00
  TRACK 03 AUDIO
    TITLE "Cйline (avec Les Compagnons de la Chanson)"
    PERFORMER "Edith Piaf"
    FLAGS DCP
    INDEX 00 03:33:73
FILE "03. Cйline (avec Les Compagnons de la Chanson).wav" WAVE
    INDEX 01 00:00:00
  TRACK 04 AUDIO
    TITLE "Le roi a fait battre tambour (avec Les Compagnons de la Chanson)"
    PERFORMER "Edith Piaf"
    FLAGS DCP
    INDEX 00 03:12:69
FILE "04. Le roi a fait battre tambour (avec Les Compagnons de la Chanson).wav" WAVE
    INDEX 01 00:00:00
  TRACK 05 AUDIO
    TITLE "Dans les prisons de Nantes (avec Les Compagnons de la Chanson)"
    PERFORMER "Edith Piaf"
    FLAGS DCP
    INDEX 00 02:39:41
FILE "05. Dans les prisons de Nantes (avec Les Compagnons de la Chanson).wav" WAVE
    INDEX 01 00:00:00
  TRACK 06 AUDIO
    TITLE "Adieu mon coeur"
    PERFORMER "Edith Piaf"
    FLAGS DCP
    INDEX 00 02:29:12
FILE "06. Adieu mon coeur.wav" WAVE
    INDEX 01 00:00:00
  TRACK 07 AUDIO
    TITLE "Le chante du pirate"
    PERFORMER "Edith Piaf"
    FLAGS DCP
    INDEX 00 03:03:62
FILE "07. Le chante du pirate.wav" WAVE
    INDEX 01 00:00:00
  TRACK 08 AUDIO
    TITLE "C'est merveilleux"
    PERFORMER "Edith Piaf"
    FLAGS DCP
    INDEX 00 02:08:59
FILE "08. C'est merveilleux.wav" WAVE
    INDEX 01 00:00:00
  TRACK 09 AUDIO
    TITLE "Un refrain courait dans la rue"
    PERFORMER "Edith Piaf"
    FLAGS DCP
    INDEX 00 03:03:61
FILE "09. Un refrain courait dans la rue.wav" WAVE
    INDEX 01 00:00:00
  TRACK 10 AUDIO
    TITLE "Il pleut"
    PERFORMER "Edith Piaf"
    FLAGS DCP
    INDEX 00 03:01:58
FILE "10. Il pleut.wav" WAVE
    INDEX 01 00:00:00
  TRACK 11 AUDIO
    TITLE "Dany"
    PERFORMER "Edith Piaf"
    FLAGS DCP
    INDEX 00 03:17:59
FILE "11. Dany.wav" WAVE
    INDEX 01 00:00:00
  TRACK 12 AUDIO
    TITLE "Bal dans ma rue"
    PERFORMER "Edith Piaf"
    FLAGS DCP
    INDEX 00 02:40:62
FILE "12. Bal dans ma rue.wav" WAVE
    INDEX 01 00:00:00
  TRACK 13 AUDIO
    TITLE "Hymne а l'amour (avec les Choers de Renй Saint-Paul)"
    PERFORMER "Edith Piaf"
    FLAGS DCP
    INDEX 00 02:56:45
FILE "13. Hymne а l'amour (avec les Choers de Renй Saint-Paul).wav" WAVE
    INDEX 01 00:00:00
  TRACK 14 AUDIO
    TITLE "La fкte continue"
    PERFORMER "Edith Piaf"
    FLAGS DCP
    INDEX 00 03:24:71
FILE "14. La fкte continue.wav" WAVE
    INDEX 01 00:00:00
  TRACK 15 AUDIO
    TITLE "Padam...padam"
    PERFORMER "Edith Piaf"
    FLAGS DCP
    INDEX 00 03:04:36
FILE "15. Padam...padam.wav" WAVE
    INDEX 01 00:00:00
  TRACK 16 AUDIO
    TITLE "La rue aux chansons (avec les Choers de Renй Saint-Paul)"
    PERFORMER "Edith Piaf"
    FLAGS DCP
    INDEX 00 03:15:27
FILE "16. La rue aux chansons (avec les Choers de Renй Saint-Paul).wav" WAVE
    INDEX 01 00:00:00
  TRACK 17 AUDIO
    TITLE "Le Noлl de la rue"
    PERFORMER "Edith Piaf"
    FLAGS DCP
    INDEX 00 02:53:52
FILE "17. Le Noлl de la rue.wav" WAVE
    INDEX 01 00:00:00
  TRACK 18 AUDIO
    TITLE "Notre-Dame de Paris"
    PERFORMER "Edith Piaf"
    FLAGS DCP
    INDEX 00 03:19:11
FILE "18. Notre-Dame de Paris.wav" WAVE
    INDEX 01 00:00:00
  TRACK 19 AUDIO
    TITLE "Monsier et madame"
    PERFORMER "Edith Piaf"
    FLAGS DCP
    INDEX 00 03:02:71
FILE "19. Monsier et madame.wav" WAVE
    INDEX 01 00:00:00
  TRACK 20 AUDIO
    TITLE "Au bal de la chance"
    PERFORMER "Edith Piaf"
    FLAGS DCP
    INDEX 00 02:59:30
FILE "20. Au bal de la chance.wav" WAVE
    INDEX 01 00:00:00
  TRACK 21 AUDIO
    TITLE "Je t'ai dans la peau"
    PERFORMER "Edith Piaf"
    FLAGS DCP
    INDEX 00 02:53:39
FILE "21. Je t'ai dans la peau.wav" WAVE
    INDEX 01 00:00:00
  TRACK 22 AUDIO
    TITLE "Johnny, tu n'es pas un ange"
    PERFORMER "Edith Piaf"
    FLAGS DCP
    INDEX 00 02:46:36
FILE "22. Johnny, tu n'es pas un ange.wav" WAVE
    INDEX 01 00:00:00
  TRACK 23 AUDIO
    TITLE "Bravo pour le clown"
    PERFORMER "Edith Piaf"
    FLAGS DCP
    INDEX 00 02:08:56
FILE "23. Bravo pour le clown.wav" WAVE
    INDEX 01 00:00:00
  TRACK 24 AUDIO
    TITLE "Soeur Anne"
    PERFORMER "Edith Piaf"
    FLAGS DCP
    INDEX 00 03:04:13
FILE "24. Soeur Anne.wav" WAVE
    INDEX 01 00:00:00
  TRACK 25 AUDIO
    TITLE "La goualante du pauvre Jean"
    PERFORMER "Edith Piaf"
    FLAGS DCP
    INDEX 00 03:46:11
FILE "25. La goualante du pauvre Jean.wav" WAVE
    INDEX 01 00:00:00
  TRACK 26 AUDIO
    TITLE "La petit boutique"
    PERFORMER "Edith Piaf"
    FLAGS DCP
    INDEX 00 02:00:53
FILE "26. La petit boutique.wav" WAVE
    INDEX 01 00:00:00
Код:
REM GENRE Chanson
REM DATE 1998
REM DISCID 67121A18
REM COMMENT "ExactAudioCopy v0.99pb5"
PERFORMER "Edith Piaf"
TITLE "100 Chansons [CD4]"
FILE "01. Sous le ciel de Paris.wav" WAVE
  TRACK 01 AUDIO
    TITLE "Sous le ciel de Paris"
    PERFORMER "Edith Piaf"
    FLAGS DCP
    INDEX 01 00:00:00
  TRACK 02 AUDIO
    TITLE "Enfin"
    PERFORMER "Edith Piaf"
    FLAGS DCP
    INDEX 00 03:22:31
FILE "02. Enfin.wav" WAVE
    INDEX 01 00:00:00
  TRACK 03 AUDIO
    TITLE "Sйrйnade du pavй"
    PERFORMER "Edith Piaf"
    FLAGS DCP
    INDEX 00 02:31:05
FILE "03. Sйrйnade du pavй.wav" WAVE
    INDEX 01 00:00:00
  TRACK 04 AUDIO
    TITLE "L'accordйoniste"
    PERFORMER "Edith Piaf"
    FLAGS DCP
    INDEX 00 03:36:32
FILE "04. L'accordйoniste.wav" WAVE
    INDEX 01 00:00:00
  TRACK 05 AUDIO
    TITLE "Les orgues de barbarie"
    PERFORMER "Edith Piaf"
    FLAGS DCP
    INDEX 00 03:34:57
FILE "05. Les orgues de barbarie.wav" WAVE
    INDEX 01 00:00:00
  TRACK 06 AUDIO
    TITLE "Kioske а journaux"
    PERFORMER "Edith Piaf"
    FLAGS DCP
    INDEX 00 02:40:35
FILE "06. Kioske а journaux.wav" WAVE
    INDEX 01 00:00:00
  TRACK 07 AUDIO
    TITLE "Bd du crime"
    PERFORMER "Edith Piaf"
    FLAGS DCP
    INDEX 00 02:09:44
FILE "07. Bd du crime.wav" WAVE
    INDEX 01 00:00:00
  TRACK 08 AUDIO
    TITLE "La ville inconnue"
    PERFORMER "Edith Piaf"
    FLAGS DCP
    INDEX 00 03:02:10
FILE "08. La ville inconnue.wav" WAVE
    INDEX 01 00:00:00
  TRACK 09 AUDIO
    TITLE "Le bruit des villes"
    PERFORMER "Edith Piaf"
    FLAGS DCP
    INDEX 00 03:49:51
FILE "09. Le bruit des villes.wav" WAVE
    INDEX 01 00:00:00
  TRACK 10 AUDIO
    TITLE "Les amants"
    PERFORMER "Edith Piaf"
    FLAGS DCP
    INDEX 00 03:29:43
FILE "10. Les amants.wav" WAVE
    INDEX 01 00:00:00
  TRACK 11 AUDIO
    TITLE "Marie trottoir"
    PERFORMER "Edith Piaf"
    FLAGS DCP
    INDEX 00 03:52:68
FILE "11. Marie trottoir.wav" WAVE
    INDEX 01 00:00:00
  TRACK 12 AUDIO
    TITLE "Les gens"
    PERFORMER "Edith Piaf"
    FLAGS DCP
    INDEX 00 02:21:03
FILE "12. Les gens.wav" WAVE
    INDEX 01 00:00:00
  TRACK 13 AUDIO
    TITLE "'La foule'  (live)"
    PERFORMER "Edith Piaf"
    FLAGS DCP
    INDEX 00 03:27:61
FILE "13. 'La foule'  (live).wav" WAVE
    INDEX 01 00:00:00
  TRACK 14 AUDIO
    TITLE "Les mots d'amour"
    PERFORMER "Edith Piaf"
    FLAGS DCP
    INDEX 00 03:08:53
FILE "14. Les mots d'amour.wav" WAVE
    INDEX 01 00:00:00
  TRACK 15 AUDIO
    TITLE "Mon Dieu"
    PERFORMER "Edith Piaf"
    FLAGS DCP
    INDEX 00 03:22:16
FILE "15. Mon Dieu.wav" WAVE
    INDEX 01 00:00:00
  TRACK 16 AUDIO
    TITLE "Mon manиge а moi"
    PERFORMER "Edith Piaf"
    FLAGS DCP
    INDEX 00 03:17:01
FILE "16. Mon manиge а moi.wav" WAVE
    INDEX 01 00:00:00
  TRACK 17 AUDIO
    TITLE "Le droit d'aimer"
    PERFORMER "Edith Piaf"
    FLAGS DCP
    INDEX 00 02:59:53
FILE "17. Le droit d'aimer.wav" WAVE
    INDEX 01 00:00:00
  TRACK 18 AUDIO
    TITLE "Non, je ne regrette rien !"
    PERFORMER "Edith Piaf"
    FLAGS DCP
    INDEX 00 03:33:48
FILE "18. Non, je ne regrette rien !.wav" WAVE
    INDEX 01 00:00:00
  TRACK 19 AUDIO
    TITLE "A quoi зa sert l'amour"
    PERFORMER "Edith Piaf"
    FLAGS DCP
    INDEX 00 02:28:50
FILE "19. A quoi зa sert l'amour.wav" WAVE
    INDEX 01 00:00:00
  TRACK 20 AUDIO
    TITLE "Milord"
    PERFORMER "Edith Piaf"
    FLAGS DCP
    INDEX 00 02:47:50
FILE "20. Milord.wav" WAVE
    INDEX 01 00:00:00
  TRACK 21 AUDIO
    TITLE "Comme moi"
    PERFORMER "Edith Piaf"
    FLAGS DCP
    INDEX 00 04:50:41
FILE "21. Comme moi.wav" WAVE
    INDEX 01 00:00:00
  TRACK 22 AUDIO
    TITLE "C'est а Hambourg"
    PERFORMER "Edith Piaf"
    FLAGS DCP
    INDEX 00 02:53:39
FILE "22. C'est а Hambourg.wav" WAVE
    INDEX 01 00:00:00
  TRACK 23 AUDIO
    TITLE "Heureuse"
    PERFORMER "Edith Piaf"
    FLAGS DCP
    INDEX 00 03:13:21
FILE "23. Heureuse.wav" WAVE
    INDEX 01 00:00:00
  TRACK 24 AUDIO
    TITLE "Y avait du soleil"
    PERFORMER "Edith Piaf"
    FLAGS DCP
    INDEX 00 03:02:68
FILE "24. Y avait du soleil.wav" WAVE
    INDEX 01 00:00:00
Правила, инструкции, FAQ!!!
Торрент  Добавлен [01 янв 2020, 23:03] Скачать торрент Магнет ссылка
Скачать торрент
[ Размер 22.41 КБ / Просмотров 5 ]

Статус
Проверен 
 
Размер  1.48 ГБ
Приватный: Нет (DHT включён)
.torrent скачан  1
 


     Отправить личное сообщение
   
Страница 1 из 1
Показать сообщения за:  Поле сортировки  
Начать новую тему Ответить на тему


Сейчас этот форум просматривают: нет зарегистрированных пользователей и гости: 0


Вы не можете начинать темы
Вы не можете отвечать на сообщения
Вы не можете редактировать свои сообщения
Вы не можете удалять свои сообщения
Вы не можете добавлять вложения

Перейти:  
cron