Начать новую тему Ответить на тему
Статистика раздачи
Размер: 459.14 МБ | Добавлен: 01 янв 2020, 23:03 | Скачали: 0
Сидеров: 0  [0 байт/сек]    Личеров: 0  [0 байт/сек]
Пред. тема | След. тема 

Автор
Сообщение

СообщениеДобавлено: 01 янв 2020, 23:03 

Ответить с цитатой 

Teri Moïse / Teri Moïse
Жанр: Chanson, Downtempo
Носитель: CD
Страна-производитель диска (релиза): Canada
Год издания: 1996
Издатель (лейбл): Source
Номер по каталогу: 7243 8 41600 2 9
Страна исполнителя (группы): US
Аудиокодек: FLAC (*.flac)
Тип рипа: tracks+.cue
Битрейт аудио: lossless
Продолжительность: 00:46:21
Источник: собственный рип
Наличие сканов в содержимом раздачи: да
Треклист:
01.- Les poemes de Michelle - 3:56
02.- Adieu - 3:55
03.- Aimez-moi comme avant - 4:09
04.- Il etait mon avenir - 4:27
05.- Ce conseil - 4:36
06.- Canal 2000 - 3:58
07.- Je serai la - 4:36
08.- Une femme qui sait ce qu'elle veut - 3:57
09.- Comment aller la-bas - 3:51
10.- Les pages - 8:56
Код:
Exact Audio Copy V1.3 from 2. September 2016
Отчёт EAC об извлечении, выполненном 30. января 2019, 13:21
Teri Moise / Teri Moïse
Дисковод: ASUS    DRW-24B3ST   Adapter: 1  ID: 0
Режим чтения                 : Достоверность
Использование точного потока : Да
Отключение кэша аудио        : Да
Использование указателей C2  : Нет
Коррекция смещения при чтении                     : 6
Способность читать области Lead-in и Lead-out     : Нет
Заполнение пропущенных сэмплов тишиной            : Да
Удаление блоков с тишиной в начале и конце        : Нет
При вычислениях CRC использовались нулевые сэмплы : Да
Интерфейс                                         : Встроенный Win32-интерфейс для Win NT/2000
Обработка зазоров                                 : Добавлено к предыдущему треку
Выходной формат          : Пользовательский кодировщик
Выбранный битрейт        : 1024 kBit/s
Качество                 : Высокий
Добавление ID3-тега      : Нет
Утилита сжатия           : C:\Program Files (x86)\Exact Audio Copy\Flac\flac.exe
Дополнительные параметры : -V -8 -T "Genre=%genre%" -T "Artist=%artist%" -T "Title=%title%" -T "Album=%albumtitle%" -T "Date=%year%" -T "Tracknumber=%tracknr%" -T "Comment=%comment%" %source%
TOC извлечённого CD
     Трек |   Старт  | Длительность | Начальный сектор | Конечный сектор
    ---------------------------------------------------------------------
       1  |  0:00.00 |    3:58.15   |           0      |      17864
       2  |  3:58.15 |    3:55.20   |       17865      |      35509
       3  |  7:53.35 |    4:09.57   |       35510      |      54241
       4  | 12:03.17 |    4:27.15   |       54242      |      74281
       5  | 16:30.32 |    4:35.58   |       74282      |      94964
       6  | 21:06.15 |    3:58.15   |       94965      |     112829
       7  | 25:04.30 |    4:35.70   |      112830      |     133524
       8  | 29:40.25 |    3:57.05   |      133525      |     151304
       9  | 33:37.30 |    3:51.50   |      151305      |     168679
      10  | 37:29.05 |    8:56.17   |      168680      |     208896
Трек  1
     Имя файла C:\Users\Сергей\Documents\EAC\01. Les poèmes de Michelle.wav
     Длина предзазора  0:00:02.00
     Пиковый уровень 99.4 %
     Скорость извлечения 3.5 X
     Качество трека 100.0 %
     CRC теста BBFC7EF4
     CRC копии BBFC7EF4
     Точное извлечение (достоверность 2)  [D3604B3C]  (AR v2)
     Копирование... OK
Трек  2
     Имя файла C:\Users\Сергей\Documents\EAC\02. Adieu.wav
     Длина предзазора  0:00:02.00
     Пиковый уровень 99.4 %
     Скорость извлечения 3.9 X
     Качество трека 100.0 %
     CRC теста D613C409
     CRC копии D613C409
     Точное извлечение (достоверность 2)  [B224DC8E]  (AR v2)
     Копирование... OK
Трек  3
     Имя файла C:\Users\Сергей\Documents\EAC\03. Aimez-moi comme avant.wav
     Длина предзазора  0:00:00.03
     Пиковый уровень 99.4 %
     Скорость извлечения 4.3 X
     Качество трека 100.0 %
     CRC теста 550C52E0
     CRC копии 550C52E0
     Точное извлечение (достоверность 2)  [30A59925]  (AR v2)
     Копирование... OK
Трек  4
     Имя файла C:\Users\Сергей\Documents\EAC\04. Il était mon avenir.wav
     Длина предзазора  0:00:00.35
     Пиковый уровень 99.4 %
     Скорость извлечения 4.7 X
     Качество трека 100.0 %
     CRC теста 0F95867F
     CRC копии 0F95867F
     Точное извлечение (достоверность 2)  [D87B32FA]  (AR v2)
     Копирование... OK
Трек  5
     Имя файла C:\Users\Сергей\Documents\EAC\05. Ce conseil.wav
     Длина предзазора  0:00:00.07
     Пиковый уровень 98.9 %
     Скорость извлечения 5.0 X
     Качество трека 100.0 %
     CRC теста 688CBCA4
     CRC копии 688CBCA4
     Точное извлечение (достоверность 2)  [5F4FC7B1]  (AR v2)
     Копирование... OK
Трек  6
     Имя файла C:\Users\Сергей\Documents\EAC\06. Canal 2000.wav
     Длина предзазора  0:00:00.03
     Пиковый уровень 98.9 %
     Скорость извлечения 5.2 X
     Качество трека 100.0 %
     CRC теста 5BD40FAF
     CRC копии 5BD40FAF
     Точное извлечение (достоверность 2)  [7B79F1A1]  (AR v2)
     Копирование... OK
Трек  7
     Имя файла C:\Users\Сергей\Documents\EAC\07. Je serai là.wav
     Длина предзазора  0:00:00.38
     Пиковый уровень 98.9 %
     Скорость извлечения 5.6 X
     Качество трека 100.0 %
     CRC теста 3C14DBB5
     CRC копии 3C14DBB5
     Точное извлечение (достоверность 2)  [76423FAF]  (AR v2)
     Копирование... OK
Трек  8
     Имя файла C:\Users\Сергей\Documents\EAC\08. Une femme qui sait ce qu'elle veut.wav
     Длина предзазора  0:00:00.03
     Пиковый уровень 100.0 %
     Скорость извлечения 4.5 X
     Качество трека 99.9 %
     CRC теста 8DFBD072
     CRC копии 8DFBD072
     Точное извлечение (достоверность 2)  [E47EE96B]  (AR v2)
     Копирование... OK
Трек  9
     Имя файла C:\Users\Сергей\Documents\EAC\09. Comment aller là-bas.wav
     Длина предзазора  0:00:00.03
     Пиковый уровень 97.2 %
     Скорость извлечения 5.9 X
     Качество трека 100.0 %
     CRC теста 731578D6
     CRC копии 731578D6
     Точное извлечение (достоверность 2)  [9AE91BE8]  (AR v2)
     Копирование... OK
Трек 10
     Имя файла C:\Users\Сергей\Documents\EAC\10. Les pages.wav
     Длина предзазора  0:00:00.45
     Пиковый уровень 99.0 %
     Скорость извлечения 6.8 X
     Качество трека 100.0 %
     CRC теста 9A279510
     CRC копии 9A279510
     Точное извлечение (достоверность 2)  [9A789F4F]  (AR v2)
     Копирование... OK
Все треки извлечены точно
Ошибок не произошло
Конец отчёта
==== Контрольная сумма отчёта 54BFD5A9FA3D6420550AFA55E807D64BDE60C53B66A2472EB95A9C2D3D27D84B ====
Код:
REM GENRE "Musique du Monde"
REM DATE 1996
REM DISCID 7F0AE10A
REM COMMENT "ExactAudioCopy v1.3"
PERFORMER "Teri Moise"
TITLE "Teri Moise"
REM COMPOSER ""
FILE "01. Les poemes de Michelle.wav" WAVE
  TRACK 01 AUDIO
    TITLE "Les poemes de Michelle"
    PERFORMER "Teri Moise"
    REM COMPOSER ""
    INDEX 01 00:00:00
  TRACK 02 AUDIO
    TITLE "Adieu"
    PERFORMER "Teri Moise"
    REM COMPOSER ""
    INDEX 00 03:56:15
FILE "02. Adieu.wav" WAVE
    INDEX 01 00:00:00
  TRACK 03 AUDIO
    TITLE "Aimez-moi comme avant"
    PERFORMER "Teri Moise"
    REM COMPOSER ""
    INDEX 00 03:55:17
FILE "03. Aimez-moi comme avant.wav" WAVE
    INDEX 01 00:00:00
  TRACK 04 AUDIO
    TITLE "Il etait mon avenir"
    PERFORMER "Teri Moise"
    REM COMPOSER ""
    INDEX 00 04:09:22
FILE "04. Il etait mon avenir.wav" WAVE
    INDEX 01 00:00:00
  TRACK 05 AUDIO
    TITLE "Ce conseil"
    PERFORMER "Teri Moise"
    REM COMPOSER ""
    INDEX 00 04:27:08
FILE "05. Ce conseil.wav" WAVE
    INDEX 01 00:00:00
  TRACK 06 AUDIO
    TITLE "Canal 2000"
    PERFORMER "Teri Moise"
    REM COMPOSER ""
    INDEX 00 04:35:55
FILE "06. Canal 2000.wav" WAVE
    INDEX 01 00:00:00
  TRACK 07 AUDIO
    TITLE "Je serai la"
    PERFORMER "Teri Moise"
    REM COMPOSER ""
    INDEX 00 03:57:52
FILE "07. Je serai la.wav" WAVE
    INDEX 01 00:00:00
  TRACK 08 AUDIO
    TITLE "Une femme qui sait ce qu'elle veut"
    PERFORMER "Teri Moise"
    REM COMPOSER ""
    INDEX 00 04:35:67
FILE "08. Une femme qui sait ce qu'elle veut.wav" WAVE
    INDEX 01 00:00:00
  TRACK 09 AUDIO
    TITLE "Comment aller la-bas"
    PERFORMER "Teri Moise"
    REM COMPOSER ""
    INDEX 00 03:57:02
FILE "09. Comment aller la-bas.wav" WAVE
    INDEX 01 00:00:00
  TRACK 10 AUDIO
    TITLE "Les pages"
    PERFORMER "Teri Moise"
    REM COMPOSER ""
    INDEX 00 03:51:05
FILE "10. Les pages.wav" WAVE
    INDEX 01 00:00:00
Доп. информация: https://www.discogs.com/Teri-Mo%C3%AFse-Teri-Mo%C3%AFse-/master/130921
Правила, инструкции, FAQ!!!
Торрент  Добавлен [01 янв 2020, 23:03] Скачать торрент Магнет ссылка
Скачать торрент
[ Размер 19.51 КБ / Просмотров 4 ]

Статус
Проверен 
 
Размер  459.14 МБ
Приватный: Нет (DHT включён)
.torrent скачан  0
 


     Отправить личное сообщение
   
Страница 1 из 1
Показать сообщения за:  Поле сортировки  
Начать новую тему Ответить на тему


Сейчас этот форум просматривают: нет зарегистрированных пользователей и гости: 0


Вы не можете начинать темы
Вы не можете отвечать на сообщения
Вы не можете редактировать свои сообщения
Вы не можете удалять свои сообщения
Вы не можете добавлять вложения

Перейти:  
cron