Начать новую тему Ответить на тему
Статистика раздачи
Размер: 260.53 МБ | Добавлен: 01 янв 2020, 22:53 | Скачали: 0
Сидеров: 0  [0 байт/сек]    Личеров: 0  [0 байт/сек]
Пред. тема | След. тема 

Автор
Сообщение

СообщениеДобавлено: 01 янв 2020, 22:53 

Ответить с цитатой 

Daniel Balavoine - Vendeurs de Larmes

Жанр: Chanson
Страна-производитель диска: France
Год издания диска: 1982
Издатель (лейбл): Barclay
Номер по каталогу: 810 022-2
Аудио кодек: FLAC (*.flac)
Тип рипа: image+.cue
Битрейт аудио: lossless
Продолжительность: 47:30
Источник (релизер): L@ter
Наличие сканов: да
Треклист:
01. Pour faire un disque
02. Vivre ou survivre
03. Je veux de l'or
04. Dieu que l'amour est triste
05. C'est fini
06. Soulиve moi
07. L'amour gardй secret
08. La fillette de l'йtang
09. Y a pas de bon numйro
10. Vendeurs de larmes
11. Viens danser
12. La danse
13. Au revoir
Код:
Exact Audio Copy V1.0 beta 1 from 15. November 2010
EAC extraction logfile from 19. January 2011, 17:41
Daniel Balavoine / Vendeur de Larmes
Used drive  : HL-DT-STDVD-RAM GH22NP20   Adapter: 0  ID: 0
Read mode               : Secure
Utilize accurate stream : Yes
Defeat audio cache      : Yes
Make use of C2 pointers : No
Read offset correction                      : 102
Overread into Lead-In and Lead-Out          : No
Fill up missing offset samples with silence : Yes
Delete leading and trailing silent blocks   : No
Null samples used in CRC calculations       : Yes
Used interface                              : Native Win32 interface for Win NT & 2000
Used output format              : User Defined Encoder
Selected bitrate                : 768 kBit/s
Quality                         : High
Add ID3 tag                     : No
Command line compressor         : C:\Program Files\Exact Audio Copy\FLAC\FLAC.EXE
Additional command line options : -6 -V -T "ARTIST=%a" -T "TITLE=%t" -T "ALBUM=%g" -T "DATE=%y" -T "TRACKNUMBER=%n" -T "GENRE=%m" -T "COMMENT=%e" %j--picture="%i"%j %s -o %d
TOC of the extracted CD
     Track |   Start  |  Length  | Start sector | End sector
    ---------------------------------------------------------
        1  |  0:00.00 |  1:23.68 |         0    |     6292
        2  |  1:23.68 |  3:34.27 |      6293    |    22369
        3  |  4:58.20 |  3:44.60 |     22370    |    39229
        4  |  8:43.05 |  4:04.58 |     39230    |    57587
        5  | 12:47.63 |  4:10.55 |     57588    |    76392
        6  | 16:58.43 |  3:35.32 |     76393    |    92549
        7  | 20:34.00 |  4:05.23 |     92550    |   110947
        8  | 24:39.23 |  3:24.52 |    110948    |   126299
        9  | 28:04.00 |  2:52.55 |    126300    |   139254
       10  | 30:56.55 |  4:45.18 |    139255    |   160647
       11  | 35:41.73 |  3:40.07 |    160648    |   177154
       12  | 39:22.05 |  4:04.43 |    177155    |   195497
       13  | 43:26.48 |  4:04.07 |    195498    |   213804
Range status and errors
Selected range
     Filename C:\Daniel Balavoine - Vendeur de Larmes.wav
     Peak level 78.8 %
     Extraction speed 0.2 X
     Range quality 100.0 %
     Copy CRC B38FE4F2
     Copy OK
No errors occurred
AccurateRip summary
End of status report
Код:
AUDIOCHECKER v2.0 beta (build 457) - by Dester - opdester@freemail.hu
~~~~~~~~~~~~~~~~~~~~~~~~~~~~~~~~~~
-=== DO NOT EDIT THIS FILE! ===-
Path: ...\Daniel Balavoine - Vendeurs de Larmes (1982)
1 -=- Daniel Balavoine - Vendeur de Larmes.flac -=- CDDA (100%)
162804004
Daniel Balavoine (5 February 1952 – 14 January 1986) was a French singer and songwriter. He was hugely popular in the French-speaking world, and inspired many singers in the 1980s, such as Jean-Jacques Goldman, and Michel Berger, his closest friend. He took part in French political life, and is known for a 1980 televised verbal confrontation with François Mitterrand. In the French music-business, Balavoine earned his own spot with both his acute and powerful voice and his lyrics, full of sadness and revolt. He was emphatic, his songs are for a most valuable part talking about despair, pain, death. Hope was under unclaimed, still present anyway..
Правила, инструкции, FAQ!!!
Торрент  Добавлен [01 янв 2020, 22:53] Скачать торрент Магнет ссылка
Скачать торрент
[ Размер 11.14 КБ / Просмотров 4 ]

Статус
Проверен 
 
Размер  260.53 МБ
Приватный: Нет (DHT включён)
.torrent скачан  0
 


     Отправить личное сообщение
   
Страница 1 из 1
Показать сообщения за:  Поле сортировки  
Начать новую тему Ответить на тему


Сейчас этот форум просматривают: нет зарегистрированных пользователей и гости: 0


Вы не можете начинать темы
Вы не можете отвечать на сообщения
Вы не можете редактировать свои сообщения
Вы не можете удалять свои сообщения
Вы не можете добавлять вложения

Перейти:  
cron