Начать новую тему Ответить на тему
Статистика раздачи
Размер: 268.47 МБ | Добавлен: 01 янв 2020, 22:59 | Скачали: 0
Сидеров: 1  [0 байт/сек]    Личеров: 0  [0 байт/сек]
Пред. тема | След. тема 

Автор
Сообщение

СообщениеДобавлено: 01 янв 2020, 22:59 

Ответить с цитатой 

Damia / Les Goelands
Жанр: chanson
Носитель: CD
Страна-производитель диска (релиза): France
Год издания: 2000
Издатель (лейбл): Mudisque De France
Страна исполнителя (группы): France
Аудиокодек: FLAC (*.flac)
Тип рипа: image+.cue
Битрейт аудио: lossless
Продолжительность: 1:14:14
Источник (релизер): DM
Наличие сканов в содержимом раздачи: нет
Треклист:
01 Les Goelands
02 Rue de La Jolie
03 Le Grand Frise
04 Tu Ne Sais Pas Aimer
05 Quand C'est Lui
06 Garde de Nuit a Lyser
07 Suppliante
08 Pour en Arriver
09 Complainte
10 Chasons Gitanes - Chanson de Route
11 Chanson des Flots
12 Sombre Dimanche
13 C'est La Guimguette
14 Niut en Mer
15 Je Sens en Moi
16 Tout le Jour, Toute La Nuit
17 Oubliez-Moi
18 Celui Qui S'En Va
19 Rue
20 L'Etranger
21 Johnny Palmer
22 J'Ai Re've Cette Nuit
23 Aux Quatre Coins d'La Banlieu
24 Petit Moussaillon
Код:
Exact Audio Copy V0.99 prebeta 5 from 4. May 2009
Отчёт EAC об извлечении, выполненном 16. декабря 2014, 15:52
Damia / Les Goelands
Дисковод: TSSTcorpCDDVDW SH-222AB   Adapter: 1  ID: 1
Режим чтения                 : Достоверность
Использование точного потока : Да
Отключение кэша аудио        : Да
Использование указателей C2  : Нет
Коррекция смещения при чтении                     : 6
Способность читать области Lead-in и Lead-out     : Нет
Заполнение пропущенных сэмплов тишиной            : Да
Удаление блоков с тишиной в начале и конце        : Нет
При вычислениях CRC использовались нулевые сэмплы : Да
Интерфейс                                         : Установленный внешний ASPI-интерфейс
Выходной формат : Внутренние WAV-операции
Формат сэмплов  : 44.100 Гц; 16 бит; стерео
TOC извлечённого CD
     Трек |   Старт  | Длительность | Начальный сектор | Конечный сектор
    ---------------------------------------------------------------------
       1  |  0:00.00 |    2:58.10   |           0      |      13359
       2  |  2:58.10 |    3:10.67   |       13360      |      27676
       3  |  6:09.02 |    2:50.08   |       27677      |      40434
       4  |  8:59.10 |    3:02.35   |       40435      |      54119
       5  | 12:01.45 |    3:06.00   |       54120      |      68069
       6  | 15:07.45 |    3:10.30   |       68070      |      82349
       7  | 18:18.00 |    2:31.30   |       82350      |      93704
       8  | 20:49.30 |    3:14.20   |       93705      |     108274
       9  | 24:03.50 |    3:28.15   |      108275      |     123889
      10  | 27:31.65 |    2:35.60   |      123890      |     135574
      11  | 30:07.50 |    3:27.42   |      135575      |     151141
      12  | 33:35.17 |    3:22.73   |      151142      |     166364
      13  | 36:58.15 |    3:13.30   |      166365      |     180869
      14  | 40:11.45 |    2:54.45   |      180870      |     193964
      15  | 43:06.15 |    3:24.27   |      193965      |     209291
      16  | 46:30.42 |    2:59.05   |      209292      |     222721
      17  | 49:29.47 |    3:07.55   |      222722      |     236801
      18  | 52:37.27 |    3:08.05   |      236802      |     250906
      19  | 55:45.32 |    3:15.10   |      250907      |     265541
      20  | 59:00.42 |    3:31.55   |      265542      |     281421
      21  | 62:32.22 |    3:05.48   |      281422      |     295344
      22  | 65:37.70 |    2:48.65   |      295345      |     308009
      23  | 68:26.60 |    2:47.57   |      308010      |     320591
      24  | 71:14.42 |    2:59.69   |      320592      |     334085
Характеристики диапазона извлечения и сообщения об ошибках
Выбранный диапазон
     Имя файла H:\_001\Damia 2000 - Les Goelands\Damia - Les Goelands.wav
     Копирование прервано
Конец отчёта
------------------------------------------------------------
Exact Audio Copy V0.99 prebeta 5 from 4. May 2009
Отчёт EAC об извлечении, выполненном 16. декабря 2014, 16:23
Damia / Les Goelands
Дисковод: TSSTcorpCDDVDW SH-222AB   Adapter: 1  ID: 1
Режим чтения                 : Достоверность
Использование точного потока : Да
Отключение кэша аудио        : Да
Использование указателей C2  : Нет
Коррекция смещения при чтении                     : 6
Способность читать области Lead-in и Lead-out     : Нет
Заполнение пропущенных сэмплов тишиной            : Да
Удаление блоков с тишиной в начале и конце        : Нет
При вычислениях CRC использовались нулевые сэмплы : Да
Интерфейс                                         : Установленный внешний ASPI-интерфейс
Выходной формат : Внутренние WAV-операции
Формат сэмплов  : 44.100 Гц; 16 бит; стерео
TOC извлечённого CD
     Трек |   Старт  | Длительность | Начальный сектор | Конечный сектор
    ---------------------------------------------------------------------
       1  |  0:00.00 |    2:58.10   |           0      |      13359
       2  |  2:58.10 |    3:10.67   |       13360      |      27676
       3  |  6:09.02 |    2:50.08   |       27677      |      40434
       4  |  8:59.10 |    3:02.35   |       40435      |      54119
       5  | 12:01.45 |    3:06.00   |       54120      |      68069
       6  | 15:07.45 |    3:10.30   |       68070      |      82349
       7  | 18:18.00 |    2:31.30   |       82350      |      93704
       8  | 20:49.30 |    3:14.20   |       93705      |     108274
       9  | 24:03.50 |    3:28.15   |      108275      |     123889
      10  | 27:31.65 |    2:35.60   |      123890      |     135574
      11  | 30:07.50 |    3:27.42   |      135575      |     151141
      12  | 33:35.17 |    3:22.73   |      151142      |     166364
      13  | 36:58.15 |    3:13.30   |      166365      |     180869
      14  | 40:11.45 |    2:54.45   |      180870      |     193964
      15  | 43:06.15 |    3:24.27   |      193965      |     209291
      16  | 46:30.42 |    2:59.05   |      209292      |     222721
      17  | 49:29.47 |    3:07.55   |      222722      |     236801
      18  | 52:37.27 |    3:08.05   |      236802      |     250906
      19  | 55:45.32 |    3:15.10   |      250907      |     265541
      20  | 59:00.42 |    3:31.55   |      265542      |     281421
      21  | 62:32.22 |    3:05.48   |      281422      |     295344
      22  | 65:37.70 |    2:48.65   |      295345      |     308009
      23  | 68:26.60 |    2:47.57   |      308010      |     320591
      24  | 71:14.42 |    2:59.69   |      320592      |     334085
Характеристики диапазона извлечения и сообщения об ошибках
Выбранный диапазон
     Имя файла H:\_001\Damia 2000 - Les Goelands\Damia - Les Goelands.wav
     Пиковый уровень 98.8 %
     Качество диапазона 100.0 %
     CRC теста 0892418D
     CRC копии 0892418D
     Копирование... OK
Ошибок не произошло
AccurateRip: сводка
Трек  1  нет в базе данных
Трек  2  нет в базе данных
Трек  3  нет в базе данных
Трек  4  нет в базе данных
Трек  5  нет в базе данных
Трек  6  нет в базе данных
Трек  7  нет в базе данных
Трек  8  нет в базе данных
Трек  9  нет в базе данных
Трек 10  нет в базе данных
Трек 11  нет в базе данных
Трек 12  нет в базе данных
Трек 13  нет в базе данных
Трек 14  нет в базе данных
Трек 15  нет в базе данных
Трек 16  нет в базе данных
Трек 17  нет в базе данных
Трек 18  нет в базе данных
Трек 19  нет в базе данных
Трек 20  нет в базе данных
Трек 21  нет в базе данных
Трек 22  нет в базе данных
Трек 23  нет в базе данных
Трек 24  нет в базе данных
Ни одного трека нет в базе AccurateRip
Конец отчёта
Код:
REM GENRE chanson
REM DATE 2000
REM DISCID 4D116618
REM COMMENT "ExactAudioCopy v0.99pb5"
PERFORMER "Damia"
TITLE "Les Goelands"
FILE "Damia - Les Goelands.flac" WAVE
  TRACK 01 AUDIO
    TITLE "01 Les Goelands"
    PERFORMER "Damia"
    FLAGS DCP
    INDEX 01 00:00:00
  TRACK 02 AUDIO
    TITLE "02 Rue de La Jolie"
    PERFORMER "Damia"
    FLAGS DCP
    INDEX 01 02:58:10
  TRACK 03 AUDIO
    TITLE "03 Le Grand Frise"
    PERFORMER "Damia"
    FLAGS DCP
    INDEX 01 06:09:02
  TRACK 04 AUDIO
    TITLE "04 Tu Ne Sais Pas Aimer"
    PERFORMER "Damia"
    FLAGS DCP
    INDEX 01 08:59:10
  TRACK 05 AUDIO
    TITLE "05 Quand C'est Lui"
    PERFORMER "Damia"
    FLAGS DCP
    INDEX 01 12:01:45
  TRACK 06 AUDIO
    TITLE "06 Garde de Nuit a Lyser"
    PERFORMER "Damia"
    FLAGS DCP
    INDEX 01 15:07:45
  TRACK 07 AUDIO
    TITLE "07 Suppliante"
    PERFORMER "Damia"
    FLAGS DCP
    INDEX 01 18:18:00
  TRACK 08 AUDIO
    TITLE "08 Pour en Arriver"
    PERFORMER "Damia"
    FLAGS DCP
    INDEX 01 20:49:30
  TRACK 09 AUDIO
    TITLE "09 Complainte"
    PERFORMER "Damia"
    FLAGS DCP
    INDEX 01 24:03:50
  TRACK 10 AUDIO
    TITLE "10 Chasons Gitanes - Chanson de Route"
    PERFORMER "Damia"
    FLAGS DCP
    INDEX 01 27:31:65
  TRACK 11 AUDIO
    TITLE "11 Chanson des Flots"
    PERFORMER "Damia"
    FLAGS DCP
    INDEX 01 30:07:50
  TRACK 12 AUDIO
    TITLE "12 Sombre Dimanche"
    PERFORMER "Damia"
    FLAGS DCP
    INDEX 01 33:35:17
  TRACK 13 AUDIO
    TITLE "13 C'est La Guimguette"
    PERFORMER "Damia"
    FLAGS DCP
    INDEX 01 36:58:15
  TRACK 14 AUDIO
    TITLE "14 Niut en Mer"
    PERFORMER "Damia"
    FLAGS DCP
    INDEX 01 40:11:45
  TRACK 15 AUDIO
    TITLE "15 Je Sens en Moi"
    PERFORMER "Damia"
    FLAGS DCP
    INDEX 01 43:06:15
  TRACK 16 AUDIO
    TITLE "16 Tout le Jour, Toute La Nuit"
    PERFORMER "Damia"
    FLAGS DCP
    INDEX 01 46:30:42
  TRACK 17 AUDIO
    TITLE "17 Oubliez-Moi"
    PERFORMER "Damia"
    FLAGS DCP
    INDEX 01 49:29:47
  TRACK 18 AUDIO
    TITLE "18 Celui Qui S'En Va"
    PERFORMER "Damia"
    FLAGS DCP
    INDEX 01 52:37:27
  TRACK 19 AUDIO
    TITLE "19 Rue"
    PERFORMER "Damia"
    FLAGS DCP
    INDEX 01 55:45:32
  TRACK 20 AUDIO
    TITLE "20 L'Etranger"
    PERFORMER "Damia"
    FLAGS DCP
    INDEX 01 59:00:42
  TRACK 21 AUDIO
    TITLE "21 Johnny Palmer"
    PERFORMER "Damia"
    FLAGS DCP
    INDEX 01 62:32:22
  TRACK 22 AUDIO
    TITLE "22 J'Ai Re've Cette Nuit"
    PERFORMER "Damia"
    FLAGS DCP
    INDEX 01 65:37:70
  TRACK 23 AUDIO
    TITLE "23 Aux Quatre Coins d'La Banlieu"
    PERFORMER "Damia"
    FLAGS DCP
    INDEX 01 68:26:60
  TRACK 24 AUDIO
    TITLE "24 Petit Moussaillon"
    PERFORMER "Damia"
    FLAGS DCP
    INDEX 01 71:14:42
Самая трагичная певица начала XX века, Дамия (Мари-Луиза Дамьен) родилась 5 декабря 1889 года в Париже. Она была третьим ребенком из восьми детей полицейского и консьержки. В 15 лет девушка убегает из семьи в результате отцовских упреков по поводу отсутствия у нее работы и настойчивых советов начать приносить доход в семью небезызвестным занятием, известным еще с древнейших времен. К тому же родитель обещает не посылать полицейские облавы в квартал, в который направляет свою дочь.
До 18 лет Мари-Луиза работает подёнщицей, живет в бедной комнате отеля, а вечерами поет на балах-мюзетт. Далее работа статистки в театре «Шатле», где ее и замечает муж легендарной французской певицы тех лет Фреэль — Роберти. Он приглашает девушку посещать занятия пения после работы. В 1908 году дебют Мари-Луизы в «Альгамбре» под именем «Марис», придуманным ей Роберти. На выступлении присутствуют актеры театра «Шатле», они не могут поверить, что народ рукоплещет их статистке, и повышают девушку в должности — она артистка их театра,.Дамия не только играет на сцене, она сопровождает свои роли вокальными партиями. Саша Гитри, посетив однажды этот театр, проникся всей душой к талантливой девушке. Именно он создал ее имидж — длинное черное платье без рукавов и придумал псевдоним «Дамия». Роберти боготворил девушку, и из-за нее развелся со своей женой Фреэль.
Ее чарующий голос сравнивали с «утренним туманом парижских пригородов». Певица обладала высоким ростом, фигурой и внешностью греческой статуи, к тому же отличалась прекрасным характером, порядочностью и тактичностью. В годы войны популярность певицы возрастает, т.к. составляющие ее репертуара — песни о солдатах, моряках, их подвигах, трудностях, их возлюбленных… Все то, что было так близко людям… В 1949 Дамия производит фурор в концертном зале «Плейель», в 1951 со своим супругом Роберти совершают турне по Японии. В 1954 Дамия дает концерт в «Олимпии». Свободных мест нет, слушатели приветствуют певицу стоя в проходах. Одновременно она снимается в кино. В 1956 году на экраны выходит фильм «Собор парижской Богоматери» по одноименному произведению В. Гюго, в котором Дамия исполнила роль нищенки.
Певица умерла очень нелепо, упав в январе 1978 года в метрополитене с движущегося эскалатора
Ее окрестили «трагедийной актрисой песни».
Когда в 1974 Дамию спросили о секрете ее голоса и долголетия, знаменитая певица ответила «Три пачки „Житан“ в день!»
Правила, инструкции, FAQ!!!
Торрент  Добавлен [01 янв 2020, 22:59] Скачать торрент Магнет ссылка
Скачать торрент
[ Размер 11.17 КБ / Просмотров 3 ]

Статус
Проверен 
 
Размер  268.47 МБ
Приватный: Нет (DHT включён)
.torrent скачан  0
 


     Отправить личное сообщение
   
Страница 1 из 1
Показать сообщения за:  Поле сортировки  
Начать новую тему Ответить на тему


Сейчас этот форум просматривают: нет зарегистрированных пользователей и гости: 0


Вы не можете начинать темы
Вы не можете отвечать на сообщения
Вы не можете редактировать свои сообщения
Вы не можете удалять свои сообщения
Вы не можете добавлять вложения

Перейти:  
cron