Начать новую тему Ответить на тему
Статистика раздачи
Размер: 634.51 МБ | Добавлен: 01 янв 2020, 23:05 | Скачали: 0
Сидеров: 0  [0 байт/сек]    Личеров: 0  [0 байт/сек]
Пред. тема | След. тема 

Автор
Сообщение

СообщениеДобавлено: 01 янв 2020, 23:05 

Ответить с цитатой 

Antoine Ciosi / 40 ans de chansons corses
Жанр: Chanson corse
Носитель: CD
Страна-производитель диска: Italy
Год издания: 2002
Издатель (лейбл): Milan
Номер по каталогу: 198 736-2
Страна: France
Аудиокодек: WavPack (*.wv)
Тип рипа: image+.cue
Битрейт аудио: lossless
Продолжительность: 01:00:30; 55:39
Источник (релизер): scalamus
Наличие сканов в содержимом раздачи: нет
Треклист:
Cd.1
01. Nostalgia Start
02. Natura Start
03. Amore Start
04. Lamentu di Ghijuvan Polu Start
05. Beata Corsica Start
06. Mi Rallegru Start
07. Kalliste Start
08. Isula Start
09. Stamane si ne Va Start
10. Solitutine Start
11. L'Amicizia Start
12. Aiacciu mi Sentu Start
13. Femmes de chez Moi Start
14. So Trent' Anni Dumane Start
15. Corsu Start
16. Le Porte-Croix Start
Cd.2
01. Ghjaseppu e Lillia
02. A Canzona Di E Filette
03. Stefanu Rughjone
04. U Merlu Neru
05. Case Corse
06. L'Arrutinu
07. A Mocasa si Tu
08. U Pastore Di Calenzana
09. Muvra Corsica
10. Barnara Furtuna
11. I Spartimenti
12. U Ritrattu
13. Béatrice
14. Corri Corri O Zitellina
15. Circinellu
16. Casa Antica Di Paese
[code][/code]
Exact Audio Copy V1.0 beta 3 from 29. August 2011
EAC extraction logfile from 31. October 2013, 15:43
Antoine Ciosi / 40 ans de chansons corses (cd.1)
Used drive : HL-DT-STDVDRAM GSA-4165B Adapter: 0 ID: 0
Read mode : Secure
Utilize accurate stream : Yes
Defeat audio cache : Yes
Make use of C2 pointers : No
Read offset correction : 667
Overread into Lead-In and Lead-Out : Yes
Fill up missing offset samples with silence : Yes
Delete leading and trailing silent blocks : No
Null samples used in CRC calculations : Yes
Used interface : Native Win32 interface for Win NT & 2000
Used output format : Internal WAV Routines
Sample format : 44.100 Hz; 16 Bit; Stereo
TOC of the extracted CD
Track | Start | Length | Start sector | End sector
---------------------------------------------------------
1 | 0:00.00 | 4:12.34 | 0 | 18933
2 | 4:12.34 | 2:56.62 | 18934 | 32195
3 | 7:09.21 | 3:15.13 | 32196 | 46833
4 | 10:24.34 | 3:13.56 | 46834 | 61364
5 | 13:38.15 | 4:26.10 | 61365 | 81324
6 | 18:04.25 | 3:22.63 | 81325 | 96537
7 | 21:27.13 | 3:08.21 | 96538 | 110658
8 | 24:35.34 | 3:29.03 | 110659 | 126336
9 | 28:04.37 | 4:04.51 | 126337 | 144687
10 | 32:09.13 | 3:36.03 | 144688 | 160890
11 | 35:45.16 | 4:08.09 | 160891 | 179499
12 | 39:53.25 | 3:34.12 | 179500 | 195561
13 | 43:27.37 | 4:00.09 | 195562 | 213570
14 | 47:27.46 | 4:41.36 | 213571 | 234681
15 | 52:09.07 | 4:28.24 | 234682 | 254805
16 | 56:37.31 | 3:53.22 | 254806 | 272302
Range status and errors
Selected range
Filename C:\Antoine Ciosi - 40 ans de chansons corses (cd.1).wav
Peak level 100.0 %
Extraction speed 7.0 X
Range quality 99.9 %
Copy CRC C692D5EF
Copy OK
No errors occurred
Exact Audio Copy V1.0 beta 3 from 29. August 2011
EAC extraction logfile from 31. October 2013, 16:10
Antoine Ciosi / 40 ans de chansons corses (cd.2)
Used drive : HL-DT-STDVDRAM GSA-4165B Adapter: 0 ID: 0
Read mode : Secure
Utilize accurate stream : Yes
Defeat audio cache : Yes
Make use of C2 pointers : No
Read offset correction : 667
Overread into Lead-In and Lead-Out : Yes
Fill up missing offset samples with silence : Yes
Delete leading and trailing silent blocks : No
Null samples used in CRC calculations : Yes
Used interface : Native Win32 interface for Win NT & 2000
Used output format : Internal WAV Routines
Sample format : 44.100 Hz; 16 Bit; Stereo
TOC of the extracted CD
Track | Start | Length | Start sector | End sector
---------------------------------------------------------
1 | 0:00.00 | 4:23.06 | 0 | 19730
2 | 4:23.06 | 2:48.66 | 19731 | 32396
3 | 7:11.72 | 3:20.51 | 32397 | 47447
4 | 10:32.48 | 3:52.03 | 47448 | 64850
5 | 14:24.51 | 3:30.10 | 64851 | 80610
6 | 17:54.61 | 3:27.68 | 80611 | 96203
7 | 21:22.54 | 3:43.08 | 96204 | 112936
8 | 25:05.62 | 2:20.66 | 112937 | 123502
9 | 27:26.53 | 3:10.06 | 123503 | 137758
10 | 30:36.59 | 3:50.30 | 137759 | 155038
11 | 34:27.14 | 4:04.00 | 155039 | 173338
12 | 38:31.14 | 3:22.54 | 173339 | 188542
13 | 41:53.68 | 2:38.49 | 188543 | 200441
14 | 44:32.42 | 2:56.03 | 200442 | 213644
15 | 47:28.45 | 3:11.37 | 213645 | 228006
16 | 50:40.07 | 4:59.44 | 228007 | 250475
Range status and errors
Selected range
Filename C:\Antoine Ciosi - 40 ans de chansons corses (cd.2).wav
Peak level 100.0 %
Extraction speed 7.6 X
Range quality 99.9 %
Copy CRC 753C3D81
Copy OK
No errors occurred
Passion of singing, constant passion, unique passion, such is the mark given in its very whole life by Antoine Ciosi in a begun artistic career thirty five years ago, with the first festival of the Corsican song and which inaugurates prefatory success ' Paese spentu '.
Success which will go growing until last cd ' Tempi of amore ' in 1996. Passion of requirement, passion of quality, passion of music, such is the behaviour of Antoine Ciosi in the creation of its shows in Corsica as elsewhere, of Mogador in the Olympia or in Chaillot.
His unforgettable meetings with big artists as Charles Aznavour and Jacques Brel, he knew how to draw the best party for the accomplishment of his art.
https://www.youtube.com/watch?v=swRerJXtKGo&feature=player_embedded
https://www.youtube.com/watch?feature=player_embedded&v=cZAJ44W2460
https://www.youtube.com/watch?v=Z4_tYkWttcE&feature=player_embedded
Правила, инструкции, FAQ!!!
Торрент  Добавлен [01 янв 2020, 23:05] Скачать торрент Магнет ссылка
Скачать торрент
[ Размер 13.39 КБ / Просмотров 3 ]

Статус
Проверен 
 
Размер  634.51 МБ
Приватный: Нет (DHT включён)
.torrent скачан  0
 


     Отправить личное сообщение
   
Страница 1 из 1
Показать сообщения за:  Поле сортировки  
Начать новую тему Ответить на тему


Сейчас этот форум просматривают: нет зарегистрированных пользователей и гости: 0


Вы не можете начинать темы
Вы не можете отвечать на сообщения
Вы не можете редактировать свои сообщения
Вы не можете удалять свои сообщения
Вы не можете добавлять вложения

Перейти:  
cron