Начать новую тему Ответить на тему
Статистика раздачи
Размер: 308.34 МБ | Добавлен: 01 авг 2020, 14:56 | Скачали: 0
Сидеров: 1  [0 байт/сек]    Личеров: 0  [0 байт/сек]
Пред. тема | След. тема 

Автор
Сообщение

СообщениеДобавлено: 01 авг 2020, 14:56 

Ответить с цитатой 

Ute Lemper - Crimes Of The Heart
Жанр: Chanson, Cabaret
Год выпуска диска: 1989
Издатель (лейбл): CBS
Номер по каталогу: 465676 2
Аудиокодек: FLAC
Тип рипа: tracks+.cue
Битрейт аудио: lossless
Продолжительность: 00:48:51
Источник: Спасибо, Filex
Наличие сканов в содержимом раздачи: да
.
.
.
.
01. Ute Lemper - Crimes of the Heart (6:07)
02. Ute Lemper - You Look Just Like a Girl Again (4:19)
03. Ute Lemper - Sabotage (4:52)
04. Ute Lemper - Changing With the Years (4:05)
05. Ute Lemper - Ruby (3:52)
06. Ute Lemper - Und wenn er wiederkommt (4:08)
07. Ute Lemper - Wherever the Dream Takes Me (4:14)
08. Ute Lemper - That's the Easy Part (4:10)
09. Ute Lemper - The Other Side of Me (3:47)
10. Ute Lemper - Small Touches of You (4:26)
11. Ute Lemper - Envie d'amour (4:51)
Код:
Exact Audio Copy V1.5 from 20. February 2020
EAC extraction logfile from 28. July 2020, 14:40
Ute Lemper / Crimes of the Heart
Used drive  : PLEXTOR CD-R   PX-230A   Adapter: 1  ID: 3
Read mode               : Secure
Utilize accurate stream : Yes
Defeat audio cache      : Yes
Make use of C2 pointers : No
Read offset correction                      : 738
Overread into Lead-In and Lead-Out          : No
Fill up missing offset samples with silence : Yes
Delete leading and trailing silent blocks   : No
Null samples used in CRC calculations       : Yes
Used interface                              : Native Win32 interface for Win NT & 2000
Gap handling                                : Appended to previous track
Used output format              : User Defined Encoder
Selected bitrate                : 1024 kBit/s
Quality                         : High
Add ID3 tag                     : No
Command line compressor         : C:\Program Files\Exact Audio Copy\Flac\flac.exe
Additional command line options : -8 -V -T "ARTIST=%artist%" -T "TITLE=%title%" -T "ALBUM=%albumtitle%" -T "DATE=%year%" -T "TRACKNUMBER=%tracknr%" -T "GENRE=%genre%" -T "COMMENT=%comment%" -T "ALBUMARTIST=%albuminterpret%" -T "COMPOSER=%composer%" -T "DISCNUMBER=%cdnumber%" -T "TOTALDISCS=%totalcds%" -T "TOTALTRACKS=%numtracks%" %source% -o %dest%
TOC of the extracted CD
     Track |   Start  |  Length  | Start sector | End sector
    ---------------------------------------------------------
        1  |  0:00.00 |  6:07.25 |         0    |    27549
        2  |  6:07.25 |  4:19.00 |     27550    |    46974
        3  | 10:26.25 |  4:51.50 |     46975    |    68849
        4  | 15:18.00 |  4:04.50 |     68850    |    87199
        5  | 19:22.50 |  3:52.00 |     87200    |   104599
        6  | 23:14.50 |  4:08.00 |    104600    |   123199
        7  | 27:22.50 |  4:14.25 |    123200    |   142274
        8  | 31:37.00 |  4:10.00 |    142275    |   161024
        9  | 35:47.00 |  3:46.52 |    161025    |   178026
       10  | 39:33.52 |  4:26.23 |    178027    |   197999
       11  | 44:00.00 |  4:50.55 |    198000    |   219804
Track  1
     Filename C:\Ripped by Filex\01 - Crimes of the Heart.wav
     Pre-gap length  0:00:02.00
     Peak level 98.4 %
     Extraction speed 5.4 X
     Track quality 100.0 %
     Test CRC A2533CE9
     Copy CRC A2533CE9
     Accurately ripped (confidence 8)  [3AC79ED8]  (AR v2)
     Copy OK
Track  2
     Filename C:\Ripped by Filex\02 - You Look Just Like a Girl Again.wav
     Pre-gap length  0:00:00.60
     Peak level 100.0 %
     Extraction speed 4.6 X
     Track quality 100.0 %
     Test CRC 28101866
     Copy CRC 28101866
     Accurately ripped (confidence 8)  [379EB19F]  (AR v2)
     Copy OK
Track  3
     Filename C:\Ripped by Filex\03 - Sabotage.wav
     Pre-gap length  0:00:00.70
     Peak level 100.0 %
     Extraction speed 5.4 X
     Track quality 100.0 %
     Test CRC 2AC29D89
     Copy CRC 2AC29D89
     Accurately ripped (confidence 7)  [B5867451]  (AR v2)
     Copy OK
Track  4
     Filename C:\Ripped by Filex\04 - Changing With the Years.wav
     Pre-gap length  0:00:00.70
     Peak level 100.0 %
     Extraction speed 4.7 X
     Track quality 99.9 %
     Test CRC 97F21EC3
     Copy CRC 97F21EC3
     Accurately ripped (confidence 7)  [33DF015D]  (AR v2)
     Copy OK
Track  5
     Filename C:\Ripped by Filex\05 - Ruby.wav
     Pre-gap length  0:00:01.03
     Peak level 100.0 %
     Extraction speed 5.2 X
     Track quality 100.0 %
     Test CRC 3A106815
     Copy CRC 3A106815
     Accurately ripped (confidence 7)  [39C743DB]  (AR v2)
     Copy OK
Track  6
     Filename C:\Ripped by Filex\06 - Und wenn er wiederkommt.wav
     Pre-gap length  0:00:00.73
     Peak level 92.3 %
     Extraction speed 4.7 X
     Track quality 99.9 %
     Test CRC CB0B8F39
     Copy CRC CB0B8F39
     Accurately ripped (confidence 7)  [32611C10]  (AR v2)
     Copy OK
Track  7
     Filename C:\Ripped by Filex\07 - Wherever the Dream Takes Me.wav
     Pre-gap length  0:00:01.03
     Peak level 86.9 %
     Extraction speed 5.2 X
     Track quality 100.0 %
     Test CRC 71D04C97
     Copy CRC 71D04C97
     Accurately ripped (confidence 7)  [CC174765]  (AR v2)
     Copy OK
Track  8
     Filename C:\Ripped by Filex\08 - That's the Easy Part.wav
     Pre-gap length  0:00:01.00
     Peak level 91.3 %
     Extraction speed 4.7 X
     Track quality 99.9 %
     Test CRC E1475BA5
     Copy CRC E1475BA5
     Accurately ripped (confidence 7)  [33F3E82D]  (AR v2)
     Copy OK
Track  9
     Filename C:\Ripped by Filex\09 - The Other Side of Me.wav
     Pre-gap length  0:00:00.58
     Peak level 92.4 %
     Extraction speed 5.2 X
     Track quality 100.0 %
     Test CRC DB3CD797
     Copy CRC DB3CD797
     Accurately ripped (confidence 7)  [BE683F67]  (AR v2)
     Copy OK
Track 10
     Filename C:\Ripped by Filex\10 - Small Touches of You.wav
     Pre-gap length  0:00:01.10
     Peak level 95.2 %
     Extraction speed 5.3 X
     Track quality 100.0 %
     Test CRC 2848A84A
     Copy CRC 2848A84A
     Accurately ripped (confidence 8)  [5D2D8AD1]  (AR v2)
     Copy OK
Track 11
     Filename C:\Ripped by Filex\11 - Envie d'amour.wav
     Pre-gap length  0:00:00.63
     Peak level 98.8 %
     Extraction speed 5.2 X
     Track quality 100.0 %
     Test CRC 5802D361
     Copy CRC 5802D361
     Accurately ripped (confidence 7)  [DAD4338E]  (AR v2)
     Copy OK
All tracks accurately ripped
No errors occurred
End of status report
---- CUETools DB Plugin V2.1.6
[CTDB TOCID: ovShPSWZX.92JqPxbvWu8_ctVUg-] found
Submit result: ovShPSWZX.92JqPxbvWu8_ctVUg- has been confirmed
Track | CTDB Status
  1   | (22/22) Accurately ripped
  2   | (22/22) Accurately ripped
  3   | (22/22) Accurately ripped
  4   | (22/22) Accurately ripped
  5   | (22/22) Accurately ripped
  6   | (22/22) Accurately ripped
  7   | (22/22) Accurately ripped
  8   | (22/22) Accurately ripped
  9   | (22/22) Accurately ripped
 10   | (22/22) Accurately ripped
 11   | (22/22) Accurately ripped
==== Log checksum 87811459652344F79BEAF351EFC34FC57363ACEA06617E3FE53DC96F5550F9C4 ====
Код:
REM GENRE Jazz
REM DATE 1989
REM DISCID A70B720B
REM COMMENT "ExactAudioCopy v1.5"
PERFORMER "Ute Lemper"
TITLE "Crimes of the Heart"
FILE "01 - Crimes of the Heart.wav" WAVE
  TRACK 01 AUDIO
    TITLE "Crimes of the Heart"
    PERFORMER "Ute Lemper"
    INDEX 01 00:00:00
  TRACK 02 AUDIO
    TITLE "You Look Just Like a Girl Again"
    PERFORMER "Ute Lemper"
    INDEX 00 06:06:40
FILE "02 - You Look Just Like a Girl Again.wav" WAVE
    INDEX 01 00:00:00
  TRACK 03 AUDIO
    TITLE "Sabotage"
    PERFORMER "Ute Lemper"
    INDEX 00 04:18:05
FILE "03 - Sabotage.wav" WAVE
    INDEX 01 00:00:00
  TRACK 04 AUDIO
    TITLE "Changing With the Years"
    PERFORMER "Ute Lemper"
    INDEX 00 04:50:55
FILE "04 - Changing With the Years.wav" WAVE
    INDEX 01 00:00:00
  TRACK 05 AUDIO
    TITLE "Ruby"
    PERFORMER "Ute Lemper"
    INDEX 00 04:03:47
FILE "05 - Ruby.wav" WAVE
    INDEX 01 00:00:00
  TRACK 06 AUDIO
    TITLE "Und wenn er wiederkommt"
    PERFORMER "Ute Lemper"
    INDEX 00 03:51:02
FILE "06 - Und wenn er wiederkommt.wav" WAVE
    INDEX 01 00:00:00
  TRACK 07 AUDIO
    TITLE "Wherever the Dream Takes Me"
    PERFORMER "Ute Lemper"
    INDEX 00 04:06:72
FILE "07 - Wherever the Dream Takes Me.wav" WAVE
    INDEX 01 00:00:00
  TRACK 08 AUDIO
    TITLE "That's the Easy Part"
    PERFORMER "Ute Lemper"
    INDEX 00 04:13:25
FILE "08 - That's the Easy Part.wav" WAVE
    INDEX 01 00:00:00
  TRACK 09 AUDIO
    TITLE "The Other Side of Me"
    PERFORMER "Ute Lemper"
    INDEX 00 04:09:17
FILE "09 - The Other Side of Me.wav" WAVE
    INDEX 01 00:00:00
  TRACK 10 AUDIO
    TITLE "Small Touches of You"
    PERFORMER "Ute Lemper"
    INDEX 00 03:45:42
FILE "10 - Small Touches of You.wav" WAVE
    INDEX 01 00:00:00
  TRACK 11 AUDIO
    TITLE "Envie d'amour"
    PERFORMER "Ute Lemper"
    INDEX 00 04:25:35
FILE "11 - Envie d'amour.wav" WAVE
    INDEX 01 00:00:00
Amazon Customer wrote:Цитата:
Цитата:
"Crimes of the heart" signals Ute Lemper's first successful solo attempt in recording an album that makes her dramatic voice accessible to a large audience. The album contains lyrics in the three languages Ute has perfect command of: her native German in "Und wenn er wiederkommt", a song that was also recorded by Marlene Dietrich, with whom Ute shares her timeless beauty, French in "Envie d'amour" and English in the other songs. The album stands out in that it is both interesting to listen to in concentration as well as serves as pleasant atmospheric music that blends in with, let's say, a dinner setting. Whereas Ute's wide vocal range and dynamic dramatic abilities are better heard on some of her other recordings, "Crimes of the heart" provides the listener with Ute's smoothest performance to date. That explains why none of the tracks really stands out on this album which is outstanding as a whole. "Crimes of the heart" was recorded in 1989 and has seen two different releases; one includes opening track "A man and a woman", which is not included on the other, which contains "Sabotage" and "Wherever the dream takes me" instead.
Правила, инструкции, FAQ!!!
Торрент  Добавлен [01 авг 2020, 14:56] Скачать торрент Магнет ссылка
Скачать торрент
[ Размер 13.95 КБ / Просмотров 2 ]

Статус
Проверен 
 
Размер  308.34 МБ
Приватный: Нет (DHT включён)
.torrent скачан  0
 


     Отправить личное сообщение
   
Страница 1 из 1
Показать сообщения за:  Поле сортировки  
Начать новую тему Ответить на тему


Сейчас этот форум просматривают: нет зарегистрированных пользователей и гости: 0


Вы не можете начинать темы
Вы не можете отвечать на сообщения
Вы не можете редактировать свои сообщения
Вы не можете удалять свои сообщения
Вы не можете добавлять вложения

Перейти:  
cron