Начать новую тему Ответить на тему
Статистика раздачи
Размер: 284.62 МБ | Добавлен: 01 янв 2020, 23:09 | Скачали: 1
Сидеров: 1  [0 байт/сек]    Личеров: 0  [0 байт/сек]
Пред. тема | След. тема 

Автор
Сообщение

СообщениеДобавлено: 01 янв 2020, 23:09 

Ответить с цитатой 

Lotte Lenya / Sings Kurt Weill's The Seven Deadly Sins and Berlin Theatre Songs
Жанр: Chanson/Cabaret
Страна-производитель диска: Austria
Год издания: 1997
Издатель (лейбл): Sony Classical
Номер по каталогу: MHK6322
Страна: Germany/USA
Аудиокодек: FLAC (*.flac)
Тип рипа: tracks+.cue
Битрейт аудио: lossless
Продолжительность: 79:46
Источник (релизер): zvukovoj
Наличие сканов в содержимом раздачи: нет
Треклист:
1. Die sieben Todsünden (The Seven Deadly Sins), — Ballet chanté in Nine Scenes: Prolog (Prologue). Andante sostenuto
2. Die sieben Todsünden (The Seven Deadly Sins), — Ballet chanté in Nine Scenes: Faulheit (Idleness). Allegro vivace
3. Die sieben Todsünden (The Seven Deadly Sins), Ballet chanté in Nine Scenes: Stolz (Pride). Allegretto, quasi andantino - Schneller Walzer
4. Die sieben Todsünden (The Seven Deadly Sins), — Ballet chanté in Nine Scenes: Zorn (Anger). Molto agitato
5. Die sieben Todsünden (The Seven Deadly Sins), — Ballet chanté in Nine Scenes: Vollerei (Gluttony). Largo
6. Die sieben Todsünden (The Seven Deadly Sins), — Ballet chanté in Nine Scenes: Unzucht (Lust). Moderato
7. Die sieben Todsünden (The Seven Deadly Sins), — Ballet chanté in Nine Scenes: Habsucht (Avarice). Allegro giusto
8. Die sieben Todsünden (The Seven Deadly Sins), Ballet chanté in Nine Scenes: Neid (Envy). Allegro non troppo - Alla marcia un poco tenuto
9. Die sieben Todsünden (The Seven Deadly Sins), — Ballet chanté in Nine Scenes: Epilog (Epilogue). Andante sostenuto
10. Mack the Knife from The Three Penny Opera (Voice)
11. Barbara-Song from The Threepenny Opera (Voice)
12. Pirate Jenny from The Threepenny Opera (Voice)
13. Havana Song from The Rise and Fall of the City of Mahagonny (Voice)
14. Alabama-Song from The Rise and Fall of the City of Mahagonny (Voice)
15. As You Make Your Bed from The Rise and Fall of the City of Mahagonny (Voice)
16. Bilbao-Song from Happy End (Voice)
17. Surabaya-Johnny from Happy End (Voice)
18. The Sailor's Tango from Happy End (Voice)
19. Ballad of the Drowned Girl from Berlin Requiem (Voice)
20. I Am A Poor Relative from The Silverlake, A Winter's Tale (Voice)
21. Ballad of Caesar from The Silverlake, A Winter's Tale (Voice)
Код:
Exact Audio Copy V1.0 beta 1 from 15. November 2010
EAC extraction logfile from 22. March 2012, 20:29
Lotte Lenya / Sings Kurt Weill's The Seven Deadly Sins and Berlin Theatre Songs
Used drive  : PIONEER DVD-RW  DVR-110D   Adapter: 3  ID: 0
Read mode               : Secure
Utilize accurate stream : Yes
Defeat audio cache      : Yes
Make use of C2 pointers : No
Read offset correction                      : 48
Overread into Lead-In and Lead-Out          : No
Fill up missing offset samples with silence : Yes
Delete leading and trailing silent blocks   : No
Null samples used in CRC calculations       : Yes
Used interface                              : Native Win32 interface for Win NT & 2000
Gap handling                                : Appended to previous track
Used output format              : User Defined Encoder
Selected bitrate                : 768 kBit/s
Quality                         : High
Add ID3 tag                     : No
Command line compressor         : F:\Exact Audio Copy\FLAC\FLAC.EXE
Additional command line options : -6 -V -T "ARTIST=%a" -T "TITLE=%t" -T "ALBUM=%g" -T "DATE=%y" -T "TRACKNUMBER=%n" -T "GENRE=%m" -T "COMMENT=%e" %j--picture="%i"%j %s -o %d
TOC of the extracted CD
     Track |   Start  |  Length  | Start sector | End sector
    ---------------------------------------------------------
        1  |  0:00.00 |  3:49.02 |         0    |    17176
        2  |  3:49.02 |  4:28.33 |     17177    |    37309
        3  |  8:17.35 |  4:44.50 |     37310    |    58659
        4  | 13:02.10 |  4:16.17 |     58660    |    77876
        5  | 17:18.27 |  3:10.03 |     77877    |    92129
        6  | 20:28.30 |  5:28.60 |     92130    |   116789
        7  | 25:57.15 |  3:12.10 |    116790    |   131199
        8  | 29:09.25 |  4:42.65 |    131200    |   152414
        9  | 33:52.15 |  1:49.60 |    152415    |   160649
       10  | 35:42.00 |  3:05.50 |    160650    |   174574
       11  | 38:47.50 |  4:23.52 |    174575    |   194351
       12  | 43:11.27 |  4:02.60 |    194352    |   212561
       13  | 47:14.12 |  1:58.03 |    212562    |   221414
       14  | 49:12.15 |  4:08.30 |    221415    |   240044
       15  | 53:20.45 |  3:56.72 |    240045    |   257816
       16  | 57:17.42 |  4:36.73 |    257817    |   278589
       17  | 61:54.40 |  4:25.35 |    278590    |   298499
       18  | 66:20.00 |  4:33.70 |    298500    |   319044
       19  | 70:53.70 |  3:05.00 |    319045    |   332919
       20  | 73:58.70 |  2:55.40 |    332920    |   346084
       21  | 76:54.35 |  2:51.47 |    346085    |   358956
Track  1
     Filename K:\My eMusic\Lotte Lenya\Sings Kurt Weill's The Seven Deadly Sins and Berlin Theatre Songs\(01) Die sieben Todsünden- Prolog .wav
     Pre-gap length  0:00:02.00
     Peak level 73.8 %
     Extraction speed 3.7 X
     Track quality 100.0 %
     Copy CRC 3034C0C2
     Accurately ripped (confidence 21)  [E1A6B387]
     Copy OK
Track  2
     Filename K:\My eMusic\Lotte Lenya\Sings Kurt Weill's The Seven Deadly Sins and Berlin Theatre Songs\(02) Die sieben Todsünden- Faulheit .wav
     Peak level 77.0 %
     Extraction speed 3.9 X
     Track quality 100.0 %
     Copy CRC 60A189F0
     Accurately ripped (confidence 21)  [3A52130E]
     Copy OK
Track  3
     Filename K:\My eMusic\Lotte Lenya\Sings Kurt Weill's The Seven Deadly Sins and Berlin Theatre Songs\(03) Die sieben Todsünden- Stolz .wav
     Peak level 81.9 %
     Extraction speed 3.5 X
     Track quality 100.0 %
     Copy CRC D5F7DF69
     Accurately ripped (confidence 21)  [3704FE48]
     Copy OK
Track  4
     Filename K:\My eMusic\Lotte Lenya\Sings Kurt Weill's The Seven Deadly Sins and Berlin Theatre Songs\(04) Die sieben Todsünden- Zorn .wav
     Peak level 78.5 %
     Extraction speed 3.6 X
     Track quality 100.0 %
     Copy CRC 3C3AB5F5
     Accurately ripped (confidence 20)  [9A178095]
     Copy OK
Track  5
     Filename K:\My eMusic\Lotte Lenya\Sings Kurt Weill's The Seven Deadly Sins and Berlin Theatre Songs\(05) Die sieben Todsünden- Völlerei .wav
     Pre-gap length  0:00:00.09
     Peak level 76.9 %
     Extraction speed 4.5 X
     Track quality 100.0 %
     Copy CRC CC68F595
     Accurately ripped (confidence 21)  [AE69118B]
     Copy OK
Track  6
     Filename K:\My eMusic\Lotte Lenya\Sings Kurt Weill's The Seven Deadly Sins and Berlin Theatre Songs\(06) Die sieben Todsünden- Unzucht .wav
     Pre-gap length  0:00:00.04
     Peak level 72.8 %
     Extraction speed 5.8 X
     Track quality 100.0 %
     Copy CRC FA6FDDEC
     Accurately ripped (confidence 21)  [7D528512]
     Copy OK
Track  7
     Filename K:\My eMusic\Lotte Lenya\Sings Kurt Weill's The Seven Deadly Sins and Berlin Theatre Songs\(07) Die sieben Todsünden- Habsucht .wav
     Peak level 74.4 %
     Extraction speed 3.3 X
     Track quality 100.0 %
     Copy CRC 306FA343
     Accurately ripped (confidence 21)  [299E4CCE]
     Copy OK
Track  8
     Filename K:\My eMusic\Lotte Lenya\Sings Kurt Weill's The Seven Deadly Sins and Berlin Theatre Songs\(08) Die sieben Todsünden- Neid .wav
     Pre-gap length  0:00:00.06
     Peak level 72.1 %
     Extraction speed 4.3 X
     Track quality 100.0 %
     Copy CRC DC6641DF
     Accurately ripped (confidence 21)  [7AAA0774]
     Copy OK
Track  9
     Filename K:\My eMusic\Lotte Lenya\Sings Kurt Weill's The Seven Deadly Sins and Berlin Theatre Songs\(09) Die sieben Todsünden- Epilog .wav
     Pre-gap length  0:00:00.03
     Peak level 58.4 %
     Extraction speed 2.7 X
     Track quality 100.0 %
     Copy CRC 4017097F
     Accurately ripped (confidence 21)  [1439EF69]
     Copy OK
Track 10
     Filename K:\My eMusic\Lotte Lenya\Sings Kurt Weill's The Seven Deadly Sins and Berlin Theatre Songs\(10) Moritat vom Mackie Messer .wav
     Pre-gap length  0:00:04.70
     Peak level 91.4 %
     Extraction speed 3.7 X
     Track quality 100.0 %
     Copy CRC 1CDC0EAC
     Accurately ripped (confidence 22)  [760F9DC2]
     Copy OK
Track 11
     Filename K:\My eMusic\Lotte Lenya\Sings Kurt Weill's The Seven Deadly Sins and Berlin Theatre Songs\(11) Barbara-Song .wav
     Pre-gap length  0:00:02.41
     Peak level 81.0 %
     Extraction speed 4.0 X
     Track quality 100.0 %
     Copy CRC C0649D32
     Accurately ripped (confidence 21)  [BE963CB0]
     Copy OK
Track 12
     Filename K:\My eMusic\Lotte Lenya\Sings Kurt Weill's The Seven Deadly Sins and Berlin Theatre Songs\(12) Seeräuberjenny .wav
     Pre-gap length  0:00:01.22
     Peak level 98.6 %
     Extraction speed 4.0 X
     Track quality 100.0 %
     Copy CRC EF26DACA
     Accurately ripped (confidence 22)  [B35A9E4B]
     Copy OK
Track 13
     Filename K:\My eMusic\Lotte Lenya\Sings Kurt Weill's The Seven Deadly Sins and Berlin Theatre Songs\(13) Havanna-Lied .wav
     Pre-gap length  0:00:02.60
     Peak level 72.6 %
     Extraction speed 3.8 X
     Track quality 100.0 %
     Copy CRC 4B4A3E74
     Accurately ripped (confidence 22)  [3ECADBE2]
     Copy OK
Track 14
     Filename K:\My eMusic\Lotte Lenya\Sings Kurt Weill's The Seven Deadly Sins and Berlin Theatre Songs\(14) Alabama-Song .wav
     Pre-gap length  0:00:02.15
     Peak level 87.8 %
     Extraction speed 4.7 X
     Track quality 99.9 %
     Copy CRC B5C5480D
     Accurately ripped (confidence 23)  [9B70F404]
     Copy OK
Track 15
     Filename K:\My eMusic\Lotte Lenya\Sings Kurt Weill's The Seven Deadly Sins and Berlin Theatre Songs\(15) Denn Wie Man Sich Bettet .wav
     Pre-gap length  0:00:02.17
     Peak level 83.2 %
     Extraction speed 5.4 X
     Track quality 100.0 %
     Copy CRC 348CC7AC
     Accurately ripped (confidence 22)  [052A26B8]
     Copy OK
Track 16
     Filename K:\My eMusic\Lotte Lenya\Sings Kurt Weill's The Seven Deadly Sins and Berlin Theatre Songs\(16) Bilbao-Song .wav
     Pre-gap length  0:00:02.04
     Peak level 90.6 %
     Extraction speed 7.3 X
     Track quality 100.0 %
     Copy CRC 33270B60
     Accurately ripped (confidence 22)  [41133FB0]
     Copy OK
Track 17
     Filename K:\My eMusic\Lotte Lenya\Sings Kurt Weill's The Seven Deadly Sins and Berlin Theatre Songs\(17) Surabaya-Johnny .wav
     Pre-gap length  0:00:01.57
     Peak level 100.0 %
     Extraction speed 7.3 X
     Track quality 100.0 %
     Copy CRC B7EDC6DF
     Accurately ripped (confidence 21)  [B0593A95]
     Copy OK
Track 18
     Filename K:\My eMusic\Lotte Lenya\Sings Kurt Weill's The Seven Deadly Sins and Berlin Theatre Songs\(18) Was die Herren Matrosen sagen .wav
     Pre-gap length  0:00:01.58
     Peak level 98.8 %
     Extraction speed 8.0 X
     Track quality 99.9 %
     Copy CRC 0A73A854
     Accurately ripped (confidence 20)  [B36FFDFE]
     Copy OK
Track 19
     Filename K:\My eMusic\Lotte Lenya\Sings Kurt Weill's The Seven Deadly Sins and Berlin Theatre Songs\(19) Ballade vom ertrunkenen Mädchen .wav
     Pre-gap length  0:00:02.17
     Peak level 63.0 %
     Extraction speed 8.5 X
     Track quality 100.0 %
     Copy CRC 7D38C965
     Accurately ripped (confidence 20)  [E3BB86D6]
     Copy OK
Track 20
     Filename K:\My eMusic\Lotte Lenya\Sings Kurt Weill's The Seven Deadly Sins and Berlin Theatre Songs\(20) Lied der Fennimore .wav
     Pre-gap length  0:00:04.05
     Peak level 66.3 %
     Extraction speed 8.4 X
     Track quality 100.0 %
     Copy CRC E3B49DA5
     Accurately ripped (confidence 20)  [5217EBC9]
     Copy OK
Track 21
     Filename K:\My eMusic\Lotte Lenya\Sings Kurt Weill's The Seven Deadly Sins and Berlin Theatre Songs\(21) Cäsars Tod .wav
     Pre-gap length  0:00:02.36
     Peak level 91.9 %
     Extraction speed 7.5 X
     Track quality 100.0 %
     Copy CRC BF6E9BE4
     Accurately ripped (confidence 19)  [F887AC79]
     Copy OK
All tracks accurately ripped
No errors occurred
End of status report
Код:
REM GENRE Theatre
REM DATE 1956
REM DISCID 2B12B215
REM COMMENT "ExactAudioCopy v1.0b1"
PERFORMER "Lotte Lenya"
TITLE "Sings Kurt Weill's The Seven Deadly Sins and Berlin Theatre Songs"
FILE "(01) Die sieben Todsünden- Prolog .wav" WAVE
  TRACK 01 AUDIO
    TITLE "Die sieben Todsünden: Prolog"
    PERFORMER "Lotte Lenya"
    INDEX 01 00:00:00
FILE "(02) Die sieben Todsünden- Faulheit .wav" WAVE
  TRACK 02 AUDIO
    TITLE "Die sieben Todsünden: Faulheit"
    PERFORMER "Lotte Lenya"
    INDEX 01 00:00:00
FILE "(03) Die sieben Todsünden- Stolz .wav" WAVE
  TRACK 03 AUDIO
    TITLE "Die sieben Todsünden: Stolz"
    PERFORMER "Lotte Lenya"
    INDEX 01 00:00:00
FILE "(04) Die sieben Todsünden- Zorn .wav" WAVE
  TRACK 04 AUDIO
    TITLE "Die sieben Todsünden: Zorn"
    PERFORMER "Lotte Lenya"
    INDEX 01 00:00:00
  TRACK 05 AUDIO
    TITLE "Die sieben Todsünden: Völlerei"
    PERFORMER "Lotte Lenya"
    INDEX 00 04:16:08
FILE "(05) Die sieben Todsünden- Völlerei .wav" WAVE
    INDEX 01 00:00:00
  TRACK 06 AUDIO
    TITLE "Die sieben Todsünden: Unzucht"
    PERFORMER "Lotte Lenya"
    INDEX 00 03:09:74
FILE "(06) Die sieben Todsünden- Unzucht .wav" WAVE
    INDEX 01 00:00:00
FILE "(07) Die sieben Todsünden- Habsucht .wav" WAVE
  TRACK 07 AUDIO
    TITLE "Die sieben Todsünden: Habsucht"
    PERFORMER "Lotte Lenya"
    INDEX 01 00:00:00
  TRACK 08 AUDIO
    TITLE "Die sieben Todsünden: Neid"
    PERFORMER "Lotte Lenya"
    INDEX 00 03:12:04
FILE "(08) Die sieben Todsünden- Neid .wav" WAVE
    INDEX 01 00:00:00
  TRACK 09 AUDIO
    TITLE "Die sieben Todsünden: Epilog"
    PERFORMER "Lotte Lenya"
    INDEX 00 04:42:62
FILE "(09) Die sieben Todsünden- Epilog .wav" WAVE
    INDEX 01 00:00:00
  TRACK 10 AUDIO
    TITLE "Moritat vom Mackie Messer"
    PERFORMER "Lotte Lenya"
    INDEX 00 01:44:65
FILE "(10) Moritat vom Mackie Messer .wav" WAVE
    INDEX 01 00:00:00
  TRACK 11 AUDIO
    TITLE "Barbara-Song"
    PERFORMER "Lotte Lenya"
    INDEX 00 03:03:09
FILE "(11) Barbara-Song .wav" WAVE
    INDEX 01 00:00:00
  TRACK 12 AUDIO
    TITLE "Seeräuberjenny"
    PERFORMER "Lotte Lenya"
    INDEX 00 04:22:30
FILE "(12) Seeräuberjenny .wav" WAVE
    INDEX 01 00:00:00
  TRACK 13 AUDIO
    TITLE "Havanna-Lied"
    PERFORMER "Lotte Lenya"
    INDEX 00 04:00:00
FILE "(13) Havanna-Lied .wav" WAVE
    INDEX 01 00:00:00
  TRACK 14 AUDIO
    TITLE "Alabama-Song"
    PERFORMER "Lotte Lenya"
    INDEX 00 01:55:63
FILE "(14) Alabama-Song .wav" WAVE
    INDEX 01 00:00:00
  TRACK 15 AUDIO
    TITLE "Denn Wie Man Sich Bettet"
    PERFORMER "Lotte Lenya"
    INDEX 00 04:06:13
FILE "(15) Denn Wie Man Sich Bettet .wav" WAVE
    INDEX 01 00:00:00
  TRACK 16 AUDIO
    TITLE "Bilbao-Song"
    PERFORMER "Lotte Lenya"
    INDEX 00 03:54:68
FILE "(16) Bilbao-Song .wav" WAVE
    INDEX 01 00:00:00
  TRACK 17 AUDIO
    TITLE "Surabaya-Johnny"
    PERFORMER "Lotte Lenya"
    INDEX 00 04:35:16
FILE "(17) Surabaya-Johnny .wav" WAVE
    INDEX 01 00:00:00
  TRACK 18 AUDIO
    TITLE "Was die Herren Matrosen sagen"
    PERFORMER "Lotte Lenya"
    INDEX 00 04:23:52
FILE "(18) Was die Herren Matrosen sagen .wav" WAVE
    INDEX 01 00:00:00
  TRACK 19 AUDIO
    TITLE "Ballade vom ertrunkenen Mädchen"
    PERFORMER "Lotte Lenya"
    INDEX 00 04:31:53
FILE "(19) Ballade vom ertrunkenen Mädchen .wav" WAVE
    INDEX 01 00:00:00
  TRACK 20 AUDIO
    TITLE "Lied der Fennimore"
    PERFORMER "Lotte Lenya"
    INDEX 00 03:00:70
FILE "(20) Lied der Fennimore .wav" WAVE
    INDEX 01 00:00:00
  TRACK 21 AUDIO
    TITLE "Cäsars Tod"
    PERFORMER "Lotte Lenya"
    INDEX 00 02:53:04
FILE "(21) Cäsars Tod .wav" WAVE
    INDEX 01 00:00:00
Правила, инструкции, FAQ!!!
Торрент  Добавлен [01 янв 2020, 23:09] Скачать торрент Магнет ссылка
Скачать торрент
[ Размер 13.16 КБ / Просмотров 2 ]

Статус
Проверен 
 
Размер  284.62 МБ
Приватный: Нет (DHT включён)
.torrent скачан  1
 


     Отправить личное сообщение
   
Страница 1 из 1
Показать сообщения за:  Поле сортировки  
Начать новую тему Ответить на тему


Сейчас этот форум просматривают: нет зарегистрированных пользователей и гости: 0


Вы не можете начинать темы
Вы не можете отвечать на сообщения
Вы не можете редактировать свои сообщения
Вы не можете удалять свои сообщения
Вы не можете добавлять вложения

Перейти:  
cron