Начать новую тему Ответить на тему
Статистика раздачи
Размер: 283 МБ | Добавлен: 01 янв 2020, 23:10 | Скачали: 0
Сидеров: 0  [0 байт/сек]    Личеров: 0  [0 байт/сек]
Пред. тема | След. тема 

Автор
Сообщение

СообщениеДобавлено: 01 янв 2020, 23:10 

Ответить с цитатой 

Debout Sur Le Zinc - Des Singes Et Des Moutons
Жанр: Chanson, Cabaret
Год выпуска диска: 2004
Производитель диска: Россия (Лицензия)
Аудио кодек: APE
Тип рипа: image+.cue
Битрейт аудио: lossless
Продолжительность: 42:49
Трэклист:
1. Les moutons
2. Le bleu du miroir
3. Elle m’ennuie
4. Chut…
5. Elle
6. Les mots d’amour
7. Comme un Ange
8. Si l’idée nous enchante
9. Les voisins
10. Les angles
11. Marée noire
12. Hop là !
Доп. информация: Credits: Accordion - Fred*
Banjo, Mandolin, Backing Vocals - Olivier Sulpice
Double Bass - William Lovti
Drums, Percussion, Xylophone, Backing Vocals - Cédric Ermolieff
Executive Producer - Loïc Le Bris
Lyrics By - Christophe Bastien (tracks: 3, 7, 11) , Romain Sassigneux (tracks: 2, 5, 9) , Simon Mimoun (tracks: 1, 6, 8, 10)
Mastered By - Tom Coyne
Producer, Music By - Debout Sur Le Zinc
Producer, Recorded By, Mixed By - Stéphane Prin
Recorded By [Assistant] - Guillaume Choutet , Vincent Vandriesten
Vocals, Clarinet, Guitar, Artwork By - Romain Sassigneux
Vocals, Electric Guitar [Gretsch], Guitar, Electric Piano [Rhodes] - Christophe Bastien
Vocals, Violin, Viola, Trumpet - Simon Mimoun
Exact Audio Copy V0.99 prebeta 4 from 23. January 2008
Отчёт EAC об извлечении, выполненном 9. июля 2009, 19:02
Debout Sur Le Zinc / Des Singes Et Des Moutons
Дисковод: _NEC DVD_RW ND-3550A Adapter: 0 ID: 0
Режим чтения : Достоверность
Использование точного потока : Да
Отключение кэша аудио : Да
Использование указателей C2 : Нет
Коррекция смещения при чтении : 48
Способность читать области Lead-in и Lead-out : Нет
Заполнение пропущенных сэмплов тишиной : Да
Удаление блоков с тишиной в начале и конце : Нет
При вычислениях CRC использовались нулевые сэмплы : Да
Интерфейс : Установленный внешний ASPI-интерфейс
Выходной формат : Внутренние WAV-операции
Формат сэмплов : 44.100 Гц; 16 бит; стерео
TOC извлечённого CD
Трек | Старт | Длительность | Начальный сектор | Конечный сектор
---------------------------------------------------------------------
1 | 0:00.00 | 3:44.68 | 0 | 16867
2 | 3:44.68 | 3:43.65 | 16868 | 33657
3 | 7:28.58 | 2:32.67 | 33658 | 45124
4 | 10:01.50 | 2:34.61 | 45125 | 56735
5 | 12:36.36 | 3:49.32 | 56736 | 73942
6 | 16:25.68 | 2:56.19 | 73943 | 87161
7 | 19:22.12 | 5:04.15 | 87162 | 109976
8 | 24:26.27 | 4:03.00 | 109977 | 128201
9 | 28:29.27 | 5:11.47 | 128202 | 151573
10 | 33:40.74 | 2:30.40 | 151574 | 162863
11 | 36:11.39 | 5:15.27 | 162864 | 186515
12 | 41:26.66 | 1:22.10 | 186516 | 192675
Характеристики диапазона извлечения и сообщения об ошибках
Выбранный диапазон
Имя файла D:\001-torrent\Debout Sur Le Zinc - Des Singes Et Des Moutons\Debout Sur Le Zinc - Des Singes Et Des Moutons.wav
Пиковый уровень 100.0 %
Качество диапазона 100.0 %
CRC копии C52EF702
Копирование... OK
Ошибок не произошло
Конец отчёта
Музыка французской группы Debout Sur Le Zinc, выпускающей уже свой третий альбом, Det Singes Et Des Moutons (2004), представляет собой любопытное, а главное - качественный микс жанров: кабаре с вкраплениями рок-элементов.
Вообще, Франция цитаделью современной музыки не является ни под каким видом. Нет, у них есть, само собой, та же Mylene Farmer, но в роке французы сколько-нибудь веского слова не сказали. Да и поп у них не мейнстримовый. У них своя традиция: как раз кабаре, шансон, милый также и русскому сердцу.
"Debout Sur Le Zinc" последовательно сохраняют национальную основу своих композиций. Сами мелодии их песен прекрасно подходят для ресторанной гулянки: разудалые, почти плясовые номера ("Les moutons", "Elle m'ennuie") аккуратно чередуются с лирическими, под которые хорошо тосковать в компании и хлопать стопочки ("Le bleu du miroir", "Chut..."). Аранжировки - аккордеон и скрипка, кое-где всплывает даже банджо, есть и духовые. Ритм в "Elle m'ennuie" больше кренится в сторону world music, едва ли не Brazzaville (если бы те как следует встряхнулись). Хорош также и вокалист - он вроде и петь не пытается, но получается очень приятно, а уж раз по-французски, то просто шарман как чарующе.
Однако чем дальше в лес, тем толще рок-партизаны. Ритм-секция у группы отстроена на редкость мощно, она агрессивно бурлит под разгульными переливами мелодических линий. Иногда просто кажется, что "Debout Sur Le Zinc" ошиблись студией и записались с басистом и барабанщиком какой-то рок-команды. В таком случае, последние на редкость удачно вписались в музыку, переходя, где надо, на фолк-плясовые мотивы - но наполняя последние энергией, которая обычным ресторанным лабухам и не снилась. Самый роковый номер альбома - "Elle", где о кабаре напоминает только скрипочка а-ля клезмер на периферии музыки; в середине этот трэк, правда, сбивается на стильные тревожные ближневосточные импровизации, а дальше появляется даже - о ужас, куда катится Франция!.. - дисторшн, очень органично вписывающийся в происходящее.
Электрогитара гостит и на других композициях, и в итоге, как правило, плясовое настроение на Det Singes Et Des Moutons совмещается с солидной стеной звука - что характерно, на редкость органично, даже и не веришь.
Проходных вещей здесь нет, менее удачна только, пожалуй, более эпическая и "экспериментальная" "Maree noire".
Общее настроение пластинки - действительно разудалое, однако угар какой-то смурной, но здесь это комплимент. Учитывая, что группа хорошо знает закон "Хорошие песни вдвое лучше, когда они короткие" (длительность диска - 42.43), можно только поздравить "Debout Sur Le Zinc" с очередным хорошим альбомом. Опыт кроссовера кабаре и рок-музыки удался.
21.04.2004, Алексей ЕРЕМЕНКО (ЗВУКИ РУ)
Правила, инструкции, FAQ!!!
Торрент  Добавлен [01 янв 2020, 23:10] Скачать торрент Магнет ссылка
Скачать торрент
[ Размер 11.9 КБ / Просмотров 4 ]

Статус
Проверен 
 
Размер  283 МБ
Приватный: Нет (DHT включён)
.torrent скачан  0
 


     Отправить личное сообщение
   
Страница 1 из 1
Показать сообщения за:  Поле сортировки  
Начать новую тему Ответить на тему


Сейчас этот форум просматривают: нет зарегистрированных пользователей и гости: 0


Вы не можете начинать темы
Вы не можете отвечать на сообщения
Вы не можете редактировать свои сообщения
Вы не можете удалять свои сообщения
Вы не можете добавлять вложения

Перейти:  
cron