Начать новую тему Ответить на тему
Статистика раздачи
Размер: 398.6 МБ | Добавлен: 01 янв 2020, 23:06 | Скачали: 0
Сидеров: 0  [0 байт/сек]    Личеров: 0  [0 байт/сек]
Пред. тема | След. тема 

Автор
Сообщение

СообщениеДобавлено: 01 янв 2020, 23:06 

Ответить с цитатой 

Arsen Dedic / Homo volans
Жанр: Chanson
Носитель: CD
Страна-производитель диска: Croatia
Год издания: (1973) 2003
Издатель (лейбл): Croatia Records
Номер по каталогу: CD 5520795
Страна: Croatia
Аудиокодек: FLAC (*.flac)
Тип рипа: tracks+.cue
Битрейт аудио: lossless
Продолжительность: 01:07:45
Источник (релизер): personnal
Наличие сканов в содержимом раздачи: да
Треклист:
01 Čitavu noć slavulj... 1:07
02 Ti se smiješ 3:38
03 Mirni podstanar 4:57
04 Oprosti mi 2:22
05 Ponovo ti govorim... 4:19
06 Tvoje nježne godine 2:40
07 Ana je Ana 4:00
08 Ti trebaš ljubavi 2:08
09 Nećeš biti sama 3:00
10 To nije važno 4:45
11 Pravilna ishrana 3:20
12 Vrtovi malih kuća 3:40
13 Pjesma o šutnji 2:45
14 Kada sretnem djevu bajnu 1:56
15 Sunčano lice 2:25
16 Priča o jednom kapitanu 2:51
17 Modra rijeka 3:50
18 Ofelija 3:56
19 Balada o smrti 1:28
20 Mala pjesmaMala pjesma 3:07
21 Laku noć muzičari 4:31
22 Čitavu noć slavulj... 1:07
Код:
Exact Audio Copy V1.0 beta 3 from 29. August 2011
EAC extraction logfile from 14. September 2014, 19:33
Arsen Dedic / Homo volans
Used drive  : ATAPI   DVD A  DH20A4P   Adapter: 2  ID: 0
Read mode               : Secure
Utilize accurate stream : Yes
Defeat audio cache      : Yes
Make use of C2 pointers : No
Read offset correction                      : 6
Overread into Lead-In and Lead-Out          : No
Fill up missing offset samples with silence : Yes
Delete leading and trailing silent blocks   : No
Null samples used in CRC calculations       : Yes
Used interface                              : Native Win32 interface for Win NT & 2000
Gap handling                                : Appended to previous track
Used output format              : User Defined Encoder
Selected bitrate                : 896 kBit/s
Quality                         : High
Add ID3 tag                     : No
Command line compressor         : C:\Program Files\Exact Audio Copy\FLAC\FLAC.EXE
Additional command line options : -V -8 -T "Genre=%genre%" -T "Artist=%artist%" -T "Title=%title%" -T "Album=%albumtitle%" -T "Date=%year%" -T "Tracknumber=%tracknr%" -T "Comment=%comment%" %source%
TOC of the extracted CD
     Track |   Start  |  Length  | Start sector | End sector
    ---------------------------------------------------------
        1  |  0:00.00 |  1:10.06 |         0    |     5255
        2  |  1:10.06 |  3:39.63 |      5256    |    21743
        3  |  4:49.69 |  5:01.41 |     21744    |    44359
        4  |  9:51.35 |  2:26.38 |     44360    |    55347
        5  | 12:17.73 |  4:21.08 |     55348    |    74930
        6  | 16:39.06 |  2:41.18 |     74931    |    87023
        7  | 19:20.24 |  4:00.19 |     87024    |   105042
        8  | 23:20.43 |  2:09.65 |    105043    |   114782
        9  | 25:30.33 |  3:01.73 |    114783    |   128430
       10  | 28:32.31 |  4:47.26 |    128431    |   149981
       11  | 33:19.57 |  3:22.37 |    149982    |   165168
       12  | 36:42.19 |  3:40.70 |    165169    |   181738
       13  | 40:23.14 |  2:44.23 |    181739    |   194061
       14  | 43:07.37 |  1:57.38 |    194062    |   202874
       15  | 45:05.00 |  2:25.73 |    202875    |   213822
       16  | 47:30.73 |  2:54.38 |    213823    |   226910
       17  | 50:25.36 |  3:52.22 |    226911    |   244332
       18  | 54:17.58 |  3:58.03 |    244333    |   262185
       19  | 58:15.61 |  1:29.56 |    262186    |   268916
       20  | 59:45.42 |  3:07.03 |    268917    |   282944
       21  | 62:52.45 |  4:31.31 |    282945    |   303300
       22  | 67:24.01 |  1:09.06 |    303301    |   308481
Track  1
     Filename D:\Music\Rock, Blues, Pop\Arsen Dedic - Homo volans - 1973\01 Citavu noc slavulj.wav
     Pre-gap length  0:00:02.00
     Peak level 99.1 %
     Extraction speed 1.4 X
     Track quality 100.0 %
     Test CRC 0E6AE9B6
     Copy CRC 0E6AE9B6
     Accurately ripped (confidence 2)  [D2585902]  (AR v2)
     Copy OK
Track  2
     Filename D:\Music\Rock, Blues, Pop\Arsen Dedic - Homo volans - 1973\02 Ti se smijes.wav
     Pre-gap length  0:00:00.72
     Peak level 100.0 %
     Extraction speed 2.0 X
     Track quality 100.0 %
     Test CRC 76EAA43C
     Copy CRC 76EAA43C
     Accurately ripped (confidence 2)  [33B700C9]  (AR v2)
     Copy OK
Track  3
     Filename D:\Music\Rock, Blues, Pop\Arsen Dedic - Homo volans - 1973\03 Mirni podstanar.wav
     Pre-gap length  0:00:01.02
     Peak level 99.4 %
     Extraction speed 2.3 X
     Track quality 100.0 %
     Test CRC AE85F33A
     Copy CRC AE85F33A
     Accurately ripped (confidence 2)  [E99F17C4]  (AR v2)
     Copy OK
Track  4
     Filename D:\Music\Rock, Blues, Pop\Arsen Dedic - Homo volans - 1973\04 Oprosti mi.wav
     Pre-gap length  0:00:01.02
     Peak level 99.4 %
     Extraction speed 2.1 X
     Track quality 100.0 %
     Test CRC DAAB2A37
     Copy CRC DAAB2A37
     Accurately ripped (confidence 2)  [665490BC]  (AR v2)
     Copy OK
Track  5
     Filename D:\Music\Rock, Blues, Pop\Arsen Dedic - Homo volans - 1973\05 Ponovo ti govorim.wav
     Pre-gap length  0:00:01.02
     Peak level 99.3 %
     Extraction speed 2.5 X
     Track quality 100.0 %
     Test CRC 56B3CE1B
     Copy CRC 56B3CE1B
     Accurately ripped (confidence 2)  [6C4CC30A]  (AR v2)
     Copy OK
Track  6
     Filename D:\Music\Rock, Blues, Pop\Arsen Dedic - Homo volans - 1973\06 Tvoje njezne godine.wav
     Pre-gap length  0:00:03.02
     Peak level 99.5 %
     Extraction speed 2.4 X
     Track quality 100.0 %
     Test CRC 94791F12
     Copy CRC 94791F12
     Accurately ripped (confidence 2)  [446F6C5C]  (AR v2)
     Copy OK
Track  7
     Filename D:\Music\Rock, Blues, Pop\Arsen Dedic - Homo volans - 1973\07 Ana je Ana.wav
     Pre-gap length  0:00:00.73
     Peak level 99.0 %
     Extraction speed 2.7 X
     Track quality 100.0 %
     Test CRC 9011323B
     Copy CRC 9011323B
     Accurately ripped (confidence 2)  [FF5FBB27]  (AR v2)
     Copy OK
Track  8
     Filename D:\Music\Rock, Blues, Pop\Arsen Dedic - Homo volans - 1973\08 Ti trebas ljubavi.wav
     Pre-gap length  0:00:01.02
     Peak level 99.2 %
     Extraction speed 2.5 X
     Track quality 100.0 %
     Test CRC 144CAB94
     Copy CRC 144CAB94
     Accurately ripped (confidence 2)  [E3C5A292]  (AR v2)
     Copy OK
Track  9
     Filename D:\Music\Rock, Blues, Pop\Arsen Dedic - Homo volans - 1973\09 Neces biti sama.wav
     Pre-gap length  0:00:01.02
     Peak level 99.3 %
     Extraction speed 2.8 X
     Track quality 100.0 %
     Test CRC 91454D9D
     Copy CRC 91454D9D
     Accurately ripped (confidence 2)  [526C7AD0]  (AR v2)
     Copy OK
Track 10
     Filename D:\Music\Rock, Blues, Pop\Arsen Dedic - Homo volans - 1973\10 To nije vazno.wav
     Pre-gap length  0:00:01.02
     Peak level 98.8 %
     Extraction speed 3.1 X
     Track quality 100.0 %
     Test CRC DA550161
     Copy CRC DA550161
     Accurately ripped (confidence 2)  [CAB99241]  (AR v2)
     Copy OK
Track 11
     Filename D:\Music\Rock, Blues, Pop\Arsen Dedic - Homo volans - 1973\11 Pravilna ishrana.wav
     Pre-gap length  0:00:03.02
     Peak level 99.3 %
     Extraction speed 2.3 X
     Track quality 99.9 %
     Test CRC 99B7A280
     Copy CRC 99B7A280
     Accurately ripped (confidence 2)  [1FC80022]  (AR v2)
     Copy OK
Track 12
     Filename D:\Music\Rock, Blues, Pop\Arsen Dedic - Homo volans - 1973\12 Vrtovi malih kuca.wav
     Pre-gap length  0:00:01.02
     Peak level 99.4 %
     Extraction speed 3.2 X
     Track quality 100.0 %
     Test CRC C02D26BB
     Copy CRC C02D26BB
     Accurately ripped (confidence 2)  [479B3734]  (AR v2)
     Copy OK
Track 13
     Filename D:\Music\Rock, Blues, Pop\Arsen Dedic - Homo volans - 1973\13 Pjesma o sutnji.wav
     Pre-gap length  0:00:00.73
     Peak level 98.8 %
     Extraction speed 2.3 X
     Track quality 99.9 %
     Test CRC D409D633
     Copy CRC D409D633
     Accurately ripped (confidence 2)  [8DE2A70F]  (AR v2)
     Copy OK
Track 14
     Filename D:\Music\Rock, Blues, Pop\Arsen Dedic - Homo volans - 1973\14 Kada sretnem djevu bajnu.wav
     Pre-gap length  0:00:01.02
     Peak level 99.1 %
     Extraction speed 2.0 X
     Track quality 99.9 %
     Test CRC 6E6E7903
     Copy CRC 6E6E7903
     Accurately ripped (confidence 2)  [53B4D54C]  (AR v2)
     Copy OK
Track 15
     Filename D:\Music\Rock, Blues, Pop\Arsen Dedic - Homo volans - 1973\15 Suncano lice.wav
     Pre-gap length  0:00:01.01
     Peak level 99.9 %
     Extraction speed 3.3 X
     Track quality 100.0 %
     Test CRC 4BCB9CB9
     Copy CRC 4BCB9CB9
     Accurately ripped (confidence 2)  [98A01C67]  (AR v2)
     Copy OK
Track 16
     Filename D:\Music\Rock, Blues, Pop\Arsen Dedic - Homo volans - 1973\16 Prica o jednom kapitanu.wav
     Pre-gap length  0:00:01.02
     Peak level 99.0 %
     Extraction speed 3.4 X
     Track quality 100.0 %
     Test CRC 341E38B4
     Copy CRC 341E38B4
     Accurately ripped (confidence 2)  [6A4EAAB2]  (AR v2)
     Copy OK
Track 17
     Filename D:\Music\Rock, Blues, Pop\Arsen Dedic - Homo volans - 1973\17 Modra rijeka.wav
     Pre-gap length  0:00:03.00
     Peak level 99.1 %
     Extraction speed 3.7 X
     Track quality 100.0 %
     Test CRC 4DC7AE51
     Copy CRC 4DC7AE51
     Accurately ripped (confidence 2)  [F0CD4A7B]  (AR v2)
     Copy OK
Track 18
     Filename D:\Music\Rock, Blues, Pop\Arsen Dedic - Homo volans - 1973\18 Ofelija.wav
     Pre-gap length  0:00:01.02
     Peak level 100.0 %
     Extraction speed 2.8 X
     Track quality 99.9 %
     Test CRC 0A68A1C6
     Copy CRC 0A68A1C6
     Accurately ripped (confidence 2)  [E9C0D77D]  (AR v2)
     Copy OK
Track 19
     Filename D:\Music\Rock, Blues, Pop\Arsen Dedic - Homo volans - 1973\19 Balada o smrti.wav
     Pre-gap length  0:00:01.01
     Peak level 98.8 %
     Extraction speed 3.1 X
     Track quality 100.0 %
     Test CRC D006BEF1
     Copy CRC D006BEF1
     Accurately ripped (confidence 2)  [A2D525BF]  (AR v2)
     Copy OK
Track 20
     Filename D:\Music\Rock, Blues, Pop\Arsen Dedic - Homo volans - 1973\20 Mala pjesma.wav
     Pre-gap length  0:00:01.02
     Peak level 98.8 %
     Extraction speed 3.7 X
     Track quality 100.0 %
     Test CRC 9AE148F6
     Copy CRC 9AE148F6
     Accurately ripped (confidence 2)  [75520BB5]  (AR v2)
     Copy OK
Track 21
     Filename D:\Music\Rock, Blues, Pop\Arsen Dedic - Homo volans - 1973\21 Laku noc muzicari.wav
     Pre-gap length  0:00:01.02
     Peak level 99.3 %
     Extraction speed 4.1 X
     Track quality 100.0 %
     Test CRC B94A28A3
     Copy CRC B94A28A3
     Accurately ripped (confidence 2)  [3EF48712]  (AR v2)
     Copy OK
Track 22
     Filename D:\Music\Rock, Blues, Pop\Arsen Dedic - Homo volans - 1973\22 Citavu noc.wav
     Pre-gap length  0:00:01.01
     Peak level 99.1 %
     Extraction speed 1.5 X
     Track quality 99.8 %
     Test CRC 53B07D6A
     Copy CRC 53B07D6A
     Accurately ripped (confidence 2)  [EA91DD49]  (AR v2)
     Copy OK
All tracks accurately ripped
No errors occurred
End of status report
==== Log checksum DFC5F024503C28AD90B6D9D0552A18E2AC21A0563F9D36489FA9FED25D3D03B1 ====
Код:
REM GENRE Chanson
REM DATE 1973
REM DISCID 28101116
REM COMMENT "ExactAudioCopy v1.0b3"
PERFORMER "Arsen Dedic"
TITLE "Homo volans"
FILE "01 Citavu noc slavulj.flac" WAVE
  TRACK 01 AUDIO
    TITLE "Citavu noc slavulj"
    PERFORMER "Arsen Dedic"
    INDEX 01 00:00:00
  TRACK 02 AUDIO
    TITLE "Ti se smijes"
    PERFORMER "Arsen Dedic"
    INDEX 00 01:09:09
FILE "02 Ti se smijes.flac" WAVE
    INDEX 01 00:00:00
  TRACK 03 AUDIO
    TITLE "Mirni podstanar"
    PERFORMER "Arsen Dedic"
    INDEX 00 03:38:61
FILE "03 Mirni podstanar.flac" WAVE
    INDEX 01 00:00:00
  TRACK 04 AUDIO
    TITLE "Oprosti mi"
    PERFORMER "Arsen Dedic"
    INDEX 00 05:00:39
FILE "04 Oprosti mi.flac" WAVE
    INDEX 01 00:00:00
  TRACK 05 AUDIO
    TITLE "Ponovo ti govorim"
    PERFORMER "Arsen Dedic"
    INDEX 00 02:25:36
FILE "05 Ponovo ti govorim.flac" WAVE
    INDEX 01 00:00:00
  TRACK 06 AUDIO
    TITLE "Tvoje njezne godine"
    PERFORMER "Arsen Dedic"
    INDEX 00 04:18:06
FILE "06 Tvoje njezne godine.flac" WAVE
    INDEX 01 00:00:00
  TRACK 07 AUDIO
    TITLE "Ana je Ana"
    PERFORMER "Arsen Dedic"
    INDEX 00 02:40:20
FILE "07 Ana je Ana.flac" WAVE
    INDEX 01 00:00:00
  TRACK 08 AUDIO
    TITLE "Ti trebas ljubavi"
    PERFORMER "Arsen Dedic"
    INDEX 00 03:59:17
FILE "08 Ti trebas ljubavi.flac" WAVE
    INDEX 01 00:00:00
  TRACK 09 AUDIO
    TITLE "Neces biti sama"
    PERFORMER "Arsen Dedic"
    INDEX 00 02:08:63
FILE "09 Neces biti sama.flac" WAVE
    INDEX 01 00:00:00
  TRACK 10 AUDIO
    TITLE "To nije vazno"
    PERFORMER "Arsen Dedic"
    INDEX 00 03:00:71
FILE "10 To nije vazno.flac" WAVE
    INDEX 01 00:00:00
  TRACK 11 AUDIO
    TITLE "Pravilna ishrana"
    PERFORMER "Arsen Dedic"
    INDEX 00 04:44:24
FILE "11 Pravilna ishrana.flac" WAVE
    INDEX 01 00:00:00
  TRACK 12 AUDIO
    TITLE "Vrtovi malih kuca"
    PERFORMER "Arsen Dedic"
    INDEX 00 03:21:35
FILE "12 Vrtovi malih kuca.flac" WAVE
    INDEX 01 00:00:00
  TRACK 13 AUDIO
    TITLE "Pjesma o sutnji"
    PERFORMER "Arsen Dedic"
    INDEX 00 03:39:72
FILE "13 Pjesma o sutnji.flac" WAVE
    INDEX 01 00:00:00
  TRACK 14 AUDIO
    TITLE "Kada sretnem djevu bajnu"
    PERFORMER "Arsen Dedic"
    INDEX 00 02:43:21
FILE "14 Kada sretnem djevu bajnu.flac" WAVE
    INDEX 01 00:00:00
  TRACK 15 AUDIO
    TITLE "Suncano lice"
    PERFORMER "Arsen Dedic"
    INDEX 00 01:56:37
FILE "15 Suncano lice.flac" WAVE
    INDEX 01 00:00:00
  TRACK 16 AUDIO
    TITLE "Prica o jednom kapitanu"
    PERFORMER "Arsen Dedic"
    INDEX 00 02:24:71
FILE "16 Prica o jednom kapitanu.flac" WAVE
    INDEX 01 00:00:00
  TRACK 17 AUDIO
    TITLE "Modra rijeka"
    PERFORMER "Arsen Dedic"
    INDEX 00 02:51:38
FILE "17 Modra rijeka.flac" WAVE
    INDEX 01 00:00:00
  TRACK 18 AUDIO
    TITLE "Ofelija"
    PERFORMER "Arsen Dedic"
    INDEX 00 03:51:20
FILE "18 Ofelija.flac" WAVE
    INDEX 01 00:00:00
  TRACK 19 AUDIO
    TITLE "Balada o smrti"
    PERFORMER "Arsen Dedic"
    INDEX 00 03:57:02
FILE "19 Balada o smrti.flac" WAVE
    INDEX 01 00:00:00
  TRACK 20 AUDIO
    TITLE "Mala pjesma"
    PERFORMER "Arsen Dedic"
    INDEX 00 01:28:54
FILE "20 Mala pjesma.flac" WAVE
    INDEX 01 00:00:00
  TRACK 21 AUDIO
    TITLE "Laku noc muzicari"
    PERFORMER "Arsen Dedic"
    INDEX 00 03:06:01
FILE "21 Laku noc muzicari.flac" WAVE
    INDEX 01 00:00:00
  TRACK 22 AUDIO
    TITLE "Citavu noc"
    PERFORMER "Arsen Dedic"
    INDEX 00 04:30:30
FILE "22 Citavu noc.flac" WAVE
    INDEX 01 00:00:00
Arsen Dedić
vocal
Miljenko Prohaska
conductor
Jugoton Studio Orchestra
Правила, инструкции, FAQ!!!
Торрент  Добавлен [01 янв 2020, 23:06] Скачать торрент Магнет ссылка
Скачать торрент
[ Размер 17.72 КБ / Просмотров 3 ]

Статус
Проверен 
 
Размер  398.6 МБ
Приватный: Нет (DHT включён)
.torrent скачан  0
 


     Отправить личное сообщение
   
Страница 1 из 1
Показать сообщения за:  Поле сортировки  
Начать новую тему Ответить на тему


Сейчас этот форум просматривают: нет зарегистрированных пользователей и гости: 0


Вы не можете начинать темы
Вы не можете отвечать на сообщения
Вы не можете редактировать свои сообщения
Вы не можете удалять свои сообщения
Вы не можете добавлять вложения

Перейти:  
cron