Начать новую тему Ответить на тему
Статистика раздачи
Размер: 301.69 МБ | Добавлен: 01 янв 2020, 23:03 | Скачали: 0
Сидеров: 0  [0 байт/сек]    Личеров: 0  [0 байт/сек]
Пред. тема | След. тема 

Автор
Сообщение

СообщениеДобавлено: 01 янв 2020, 23:03 

Ответить с цитатой 

Pigalle
Regards affligés sur la morne et pitoyable existence de Benjamin Tremblay, personnage falot mais ô combien attachant

Жанр: Chanson, Alternative Rock
Носитель: CD
Страна-производитель диска (релиза): France
Год издания: 1990
Издатель (лейбл): Boucherie Productions
Номер по каталогу: BP1034
Страна исполнителя (группы): France
Аудиокодек: FLAC (*.flac)
Тип рипа: tracks+.cue
Битрейт аудио: lossless
Продолжительность: 00:47:09
Источник: собственный рип
Наличие сканов в содержимом раздачи: нет
01. Écris-moi
02. Marie la rouquine
03. Une nuit
04. Le tourbillon
05. Y'a l'aventure
06. Premières fois
07. Les lettres de l'autoroute
08. Dans la salle du bar-tabac de la rue des Martyrs
09. Sophie de Nantes
10. Éternel salaud
11. Chez Rascal et Ronan
12. Dans les prisons
13. Angèle
14. En bas, en haut
15. Le chaland
16. Un petit paradis
17. Paris le soir
18. Renaître
Код:
Exact Audio Copy V1.3 from 2. September 2016
EAC extraction logfile from 31. March 2019, 22:54
Pigalle / Regards affligés sur la morne et pitoyable existence de Benjamin Tremblay, personnage falot mais ô combien attachant
Used drive  : PLEXTOR DVDR   PX-891SA   Adapter: 1  ID: 0
Read mode               : Secure
Utilize accurate stream : Yes
Defeat audio cache      : Yes
Make use of C2 pointers : No
Read offset correction                      : 6
Overread into Lead-In and Lead-Out          : No
Fill up missing offset samples with silence : Yes
Delete leading and trailing silent blocks   : No
Null samples used in CRC calculations       : Yes
Used interface                              : Native Win32 interface for Win NT & 2000
Gap handling                                : Appended to previous track
Used output format              : User Defined Encoder
Selected bitrate                : 1024 kBit/s
Quality                         : High
Add ID3 tag                     : No
Command line compressor         : C:\Program Files (x86)\Exact Audio Copy\FLAC\FLAC.EXE
Additional command line options : -8 -V -T "ARTIST=%artist%" -T "TITLE=%title%" -T "ALBUM=%albumtitle%" -T "DATE=%year%" -T "TRACKNUMBER=%tracknr%" -T "GENRE=%genre%" -T "COMMENT=%comment%" -T "BAND=%albuminterpret%" -T "ALBUMARTIST=%albuminterpret%" -T "COMPOSER=%composer%" %haslyrics%--tag-from-file=LYRICS="%lyricsfile%"%haslyrics% -T "DISCNUMBER=%cdnumber%" -T "TOTALDISCS=%totalcds%" -T "TOTALTRACKS=%numtracks%" %hascover%--picture="%coverfile%"%hascover% %source% -o %dest%
TOC of the extracted CD
     Track |   Start  |  Length  | Start sector | End sector
    ---------------------------------------------------------
        1  |  0:00.33 |  2:53.65 |        33    |    13072
        2  |  2:54.23 |  2:17.02 |     13073    |    23349
        3  |  5:11.25 |  3:01.15 |     23350    |    36939
        4  |  8:12.40 |  2:08.58 |     36940    |    46597
        5  | 10:21.23 |  1:38.32 |     46598    |    53979
        6  | 11:59.55 |  1:35.58 |     53980    |    61162
        7  | 13:35.38 |  4:37.65 |     61163    |    82002
        8  | 18:13.28 |  3:02.65 |     82003    |    95717
        9  | 21:16.18 |  2:08.20 |     95718    |   105337
       10  | 23:24.38 |  2:56.62 |    105338    |   118599
       11  | 26:21.25 |  3:13.70 |    118600    |   133144
       12  | 29:35.20 |  2:03.23 |    133145    |   142392
       13  | 31:38.43 |  1:49.67 |    142393    |   150634
       14  | 33:28.35 |  2:38.65 |    150635    |   162549
       15  | 36:07.25 |  2:02.55 |    162550    |   171754
       16  | 38:10.05 |  2:28.48 |    171755    |   182902
       17  | 40:38.53 |  2:51.50 |    182903    |   195777
       18  | 43:30.28 |  3:39.55 |    195778    |   212257
Track  1
     Filename H:\Torrents\Pigalle\Pigalle (1990) [BP1034] Regards affligés\01. Écris-moi.wav
     Pre-gap length  0:00:02.33
     Peak level 100.0 %
     Extraction speed 4.9 X
     Track quality 100.0 %
     Test CRC 930A2EF4
     Copy CRC 930A2EF4
     Cannot be verified as accurate (confidence 13)  [6E7C0203], AccurateRip returned [8B4F0B8A]  (AR v2)
     Copy OK
Track  2
     Filename H:\Torrents\Pigalle\Pigalle (1990) [BP1034] Regards affligés\02. Marie la rouquine.wav
     Pre-gap length  0:00:01.20
     Peak level 100.0 %
     Extraction speed 5.0 X
     Track quality 100.0 %
     Test CRC D09D3F20
     Copy CRC D09D3F20
     Cannot be verified as accurate (confidence 13)  [9D94C111], AccurateRip returned [F7C11445]  (AR v2)
     Copy OK
Track  3
     Filename H:\Torrents\Pigalle\Pigalle (1990) [BP1034] Regards affligés\03. Une nuit.wav
     Pre-gap length  0:00:01.60
     Peak level 100.0 %
     Extraction speed 5.6 X
     Track quality 100.0 %
     Test CRC 580FCC5F
     Copy CRC 580FCC5F
     Cannot be verified as accurate (confidence 13)  [C84CCBBE], AccurateRip returned [8203C4A0]  (AR v2)
     Copy OK
Track  4
     Filename H:\Torrents\Pigalle\Pigalle (1990) [BP1034] Regards affligés\04. Le tourbillon.wav
     Pre-gap length  0:00:00.49
     Peak level 100.0 %
     Extraction speed 4.1 X
     Track quality 99.9 %
     Test CRC EF20FE91
     Copy CRC EF20FE91
     Cannot be verified as accurate (confidence 13)  [46FDA893], AccurateRip returned [6D6BB923]  (AR v2)
     Copy OK
Track  5
     Filename H:\Torrents\Pigalle\Pigalle (1990) [BP1034] Regards affligés\05. Y'a l'aventure.wav
     Peak level 100.0 %
     Extraction speed 5.4 X
     Track quality 100.0 %
     Test CRC F0DA05A0
     Copy CRC F0DA05A0
     Cannot be verified as accurate (confidence 13)  [6862403F], AccurateRip returned [5783E402]  (AR v2)
     Copy OK
Track  6
     Filename H:\Torrents\Pigalle\Pigalle (1990) [BP1034] Regards affligés\06. Premières fois.wav
     Peak level 97.6 %
     Extraction speed 5.5 X
     Track quality 100.0 %
     Test CRC AF7E1576
     Copy CRC AF7E1576
     Cannot be verified as accurate (confidence 13)  [F373CE4D], AccurateRip returned [3DBCD70A]  (AR v2)
     Copy OK
Track  7
     Filename H:\Torrents\Pigalle\Pigalle (1990) [BP1034] Regards affligés\07. Les lettres de l'autoroute.wav
     Pre-gap length  0:00:01.19
     Peak level 93.9 %
     Extraction speed 6.0 X
     Track quality 99.9 %
     Test CRC F7F15691
     Copy CRC F7F15691
     Cannot be verified as accurate (confidence 13)  [DD62398F], AccurateRip returned [2EB4CE33]  (AR v2)
     Copy OK
Track  8
     Filename H:\Torrents\Pigalle\Pigalle (1990) [BP1034] Regards affligés\08. Dans la salle du bar-tabac de la rue des Martyrs.wav
     Peak level 87.2 %
     Extraction speed 7.0 X
     Track quality 100.0 %
     Test CRC 6383765F
     Copy CRC 6383765F
     Cannot be verified as accurate (confidence 13)  [925AA660], AccurateRip returned [F9719313]  (AR v2)
     Copy OK
Track  9
     Filename H:\Torrents\Pigalle\Pigalle (1990) [BP1034] Regards affligés\09. Sophie de Nantes.wav
     Pre-gap length  0:00:00.28
     Peak level 93.0 %
     Extraction speed 6.8 X
     Track quality 100.0 %
     Test CRC 5EB6BC7D
     Copy CRC 5EB6BC7D
     Cannot be verified as accurate (confidence 13)  [4288AAF4], AccurateRip returned [2CE0858F]  (AR v2)
     Copy OK
Track 10
     Filename H:\Torrents\Pigalle\Pigalle (1990) [BP1034] Regards affligés\10. Éternel salaud.wav
     Pre-gap length  0:00:01.15
     Peak level 83.7 %
     Extraction speed 7.6 X
     Track quality 100.0 %
     Test CRC 6433B90D
     Copy CRC 6433B90D
     Cannot be verified as accurate (confidence 13)  [2C84171A], AccurateRip returned [449BCCE7]  (AR v2)
     Copy OK
Track 11
     Filename H:\Torrents\Pigalle\Pigalle (1990) [BP1034] Regards affligés\11. Chez Rascal et Ronan.wav
     Peak level 100.0 %
     Extraction speed 7.9 X
     Track quality 100.0 %
     Test CRC 46A95BE8
     Copy CRC 46A95BE8
     Cannot be verified as accurate (confidence 13)  [FB835179], AccurateRip returned [1D8D6AC7]  (AR v2)
     Copy OK
Track 12
     Filename H:\Torrents\Pigalle\Pigalle (1990) [BP1034] Regards affligés\12. Dans les prisons.wav
     Pre-gap length  0:00:00.69
     Peak level 100.0 %
     Extraction speed 7.4 X
     Track quality 100.0 %
     Test CRC E6A22486
     Copy CRC E6A22486
     Cannot be verified as accurate (confidence 13)  [C2F6D7CD], AccurateRip returned [DFAB87E6]  (AR v2)
     Copy OK
Track 13
     Filename H:\Torrents\Pigalle\Pigalle (1990) [BP1034] Regards affligés\13. Angèle.wav
     Pre-gap length  0:00:00.35
     Peak level 99.5 %
     Extraction speed 5.2 X
     Track quality 99.9 %
     Test CRC 5DA2AA68
     Copy CRC 5DA2AA68
     Cannot be verified as accurate (confidence 13)  [5E01D13A], AccurateRip returned [DCC0CA32]  (AR v2)
     Copy OK
Track 14
     Filename H:\Torrents\Pigalle\Pigalle (1990) [BP1034] Regards affligés\14. En bas, en haut.wav
     Pre-gap length  0:00:00.48
     Peak level 80.1 %
     Extraction speed 8.2 X
     Track quality 100.0 %
     Test CRC DA73D09A
     Copy CRC DA73D09A
     Cannot be verified as accurate (confidence 13)  [9D22CEA7], AccurateRip returned [B2BD838C]  (AR v2)
     Copy OK
Track 15
     Filename H:\Torrents\Pigalle\Pigalle (1990) [BP1034] Regards affligés\15. Le chaland.wav
     Pre-gap length  0:00:00.40
     Peak level 80.9 %
     Extraction speed 7.8 X
     Track quality 100.0 %
     Test CRC 39E58EB4
     Copy CRC 39E58EB4
     Cannot be verified as accurate (confidence 13)  [30179F36], AccurateRip returned [6A311C8E]  (AR v2)
     Copy OK
Track 16
     Filename H:\Torrents\Pigalle\Pigalle (1990) [BP1034] Regards affligés\16. Un petit paradis.wav
     Pre-gap length  0:00:01.00
     Peak level 75.8 %
     Extraction speed 8.4 X
     Track quality 100.0 %
     Test CRC 2B2C38ED
     Copy CRC 2B2C38ED
     Cannot be verified as accurate (confidence 13)  [AB6D2149], AccurateRip returned [2208AEBE]  (AR v2)
     Copy OK
Track 17
     Filename H:\Torrents\Pigalle\Pigalle (1990) [BP1034] Regards affligés\17. Paris le soir.wav
     Pre-gap length  0:00:01.12
     Peak level 90.3 %
     Extraction speed 6.7 X
     Track quality 99.9 %
     Test CRC 1D23C12E
     Copy CRC 1D23C12E
     Cannot be verified as accurate (confidence 14)  [213F2424], AccurateRip returned [E447BA11]  (AR v2)
     Copy OK
Track 18
     Filename H:\Torrents\Pigalle\Pigalle (1990) [BP1034] Regards affligés\18. Renaître.wav
     Pre-gap length  0:00:01.06
     Peak level 90.2 %
     Extraction speed 9.2 X
     Track quality 100.0 %
     Test CRC E5B0855B
     Copy CRC E5B0855B
     Cannot be verified as accurate (confidence 14)  [8A36E2CF], AccurateRip returned [60A03461]  (AR v2)
     Copy OK
No tracks could be verified as accurate
You may have a different pressing from the one(s) in the database
No errors occurred
End of status report
==== Log checksum ED04A00D22BB07CD0D78CD4CF6EA1FF2179DB7390A1100D3246E49871F704B26 ====
Код:
REM GENRE "Rock; Pop"
REM DATE 1990
REM DISCID E30B0E12
REM COMMENT "ExactAudioCopy v1.3"
CATALOG 0000000000000
PERFORMER "Pigalle"
TITLE "Regards affligés sur la morne et pitoyable existence de Benjamin Tremblay, pe..."
REM COMPOSER ""
FILE "01. Écris-moi.wav" WAVE
  TRACK 01 AUDIO
    TITLE "Écris-moi"
    PERFORMER "Pigalle"
    REM COMPOSER ""
    PREGAP 00:00:33
    INDEX 01 00:00:00
  TRACK 02 AUDIO
    TITLE "Marie la rouquine"
    PERFORMER "Pigalle"
    REM COMPOSER ""
    INDEX 00 02:52:45
FILE "02. Marie la rouquine.wav" WAVE
    INDEX 01 00:00:00
  TRACK 03 AUDIO
    TITLE "Une nuit"
    PERFORMER "Pigalle"
    REM COMPOSER ""
    INDEX 00 02:15:17
FILE "03. Une nuit.wav" WAVE
    INDEX 01 00:00:00
  TRACK 04 AUDIO
    TITLE "Le tourbillon"
    PERFORMER "Pigalle"
    REM COMPOSER ""
    INDEX 00 03:00:41
FILE "04. Le tourbillon.wav" WAVE
    INDEX 01 00:00:00
FILE "05. Y'a l'aventure.wav" WAVE
  TRACK 05 AUDIO
    TITLE "Y'a l'aventure"
    PERFORMER "Pigalle"
    REM COMPOSER ""
    INDEX 01 00:00:00
FILE "06. Premières fois.wav" WAVE
  TRACK 06 AUDIO
    TITLE "Premières fois"
    PERFORMER "Pigalle"
    REM COMPOSER ""
    INDEX 01 00:00:00
  TRACK 07 AUDIO
    TITLE "Les lettres de l'autoroute"
    PERFORMER "Pigalle"
    REM COMPOSER ""
    INDEX 00 01:34:39
FILE "07. Les lettres de l'autoroute.wav" WAVE
    INDEX 01 00:00:00
FILE "08. Dans la salle du bar-tabac de la rue des Martyrs.wav" WAVE
  TRACK 08 AUDIO
    TITLE "Dans la salle du bar-tabac de la rue des Martyrs"
    PERFORMER "Pigalle"
    REM COMPOSER ""
    INDEX 01 00:00:00
  TRACK 09 AUDIO
    TITLE "Sophie de Nantes"
    PERFORMER "Pigalle"
    REM COMPOSER ""
    INDEX 00 03:02:37
FILE "09. Sophie de Nantes.wav" WAVE
    INDEX 01 00:00:00
  TRACK 10 AUDIO
    TITLE "Éternel salaud"
    PERFORMER "Pigalle"
    REM COMPOSER ""
    INDEX 00 02:07:05
FILE "10. Éternel salaud.wav" WAVE
    INDEX 01 00:00:00
FILE "11. Chez Rascal et Ronan.wav" WAVE
  TRACK 11 AUDIO
    TITLE "Chez Rascal et Ronan"
    PERFORMER "Pigalle"
    REM COMPOSER ""
    INDEX 01 00:00:00
  TRACK 12 AUDIO
    TITLE "Dans les prisons"
    PERFORMER "Pigalle"
    REM COMPOSER ""
    INDEX 00 03:13:01
FILE "12. Dans les prisons.wav" WAVE
    INDEX 01 00:00:00
  TRACK 13 AUDIO
    TITLE "Angèle"
    PERFORMER "Pigalle"
    REM COMPOSER ""
    INDEX 00 02:02:63
FILE "13. Angèle.wav" WAVE
    INDEX 01 00:00:00
  TRACK 14 AUDIO
    TITLE "En bas, en haut"
    PERFORMER "Pigalle"
    REM COMPOSER ""
    INDEX 00 01:49:19
FILE "14. En bas, en haut.wav" WAVE
    INDEX 01 00:00:00
  TRACK 15 AUDIO
    TITLE "Le chaland"
    PERFORMER "Pigalle"
    REM COMPOSER ""
    INDEX 00 02:38:25
FILE "15. Le chaland.wav" WAVE
    INDEX 01 00:00:00
  TRACK 16 AUDIO
    TITLE "Un petit paradis"
    PERFORMER "Pigalle"
    REM COMPOSER ""
    INDEX 00 02:01:55
FILE "16. Un petit paradis.wav" WAVE
    INDEX 01 00:00:00
  TRACK 17 AUDIO
    TITLE "Paris le soir"
    PERFORMER "Pigalle"
    REM COMPOSER ""
    INDEX 00 02:27:36
FILE "17. Paris le soir.wav" WAVE
    INDEX 01 00:00:00
  TRACK 18 AUDIO
    TITLE "Renaître"
    PERFORMER "Pigalle"
    REM COMPOSER ""
    INDEX 00 02:50:44
FILE "18. Renaître.wav" WAVE
    INDEX 01 00:00:00
Правила, инструкции, FAQ!!!
Торрент  Добавлен [01 янв 2020, 23:03] Скачать торрент Магнет ссылка
Скачать торрент
[ Размер 13.62 КБ / Просмотров 2 ]

Статус
Проверен 
 
Размер  301.69 МБ
Приватный: Нет (DHT включён)
.torrent скачан  0
 


     Отправить личное сообщение
   
Страница 1 из 1
Показать сообщения за:  Поле сортировки  
Начать новую тему Ответить на тему


Сейчас этот форум просматривают: нет зарегистрированных пользователей и гости: 0


Вы не можете начинать темы
Вы не можете отвечать на сообщения
Вы не можете редактировать свои сообщения
Вы не можете удалять свои сообщения
Вы не можете добавлять вложения

Перейти:  
cron