Начать новую тему Ответить на тему
Статистика раздачи
Размер: 764.1 МБ | Добавлен: 01 янв 2020, 23:07 | Скачали: 0
Сидеров: 0  [0 байт/сек]    Личеров: 0  [0 байт/сек]
Пред. тема | След. тема 

Автор
Сообщение

СообщениеДобавлено: 01 янв 2020, 23:07 

Ответить с цитатой 

Salvatore Adamo - C`est Ma Vie [2cd]
Жанр: Chanson-Adamo, francaise-pop
Год выпуска диска: 2005
Производитель диска: Belgium
Аудио кодек: APE
Тип рипа: image+.cue
Битрейт аудио: lossless
Продолжительность: 46,50 & 70,37
Трэклист:
CD 1
1 Vous Permettez Monsieur
2 Tombe La Neige
3 Une Meche De Cheveux
4 Les Filles Du Bord De Mer
5 Quand Les Roses
6 Mes Mains Sur Tes Hanches
7 Comme Toujours
8 Elle
9 Inch'Allah
10 J'Aime
11 J'Avais Oublie Que Les Roses Sont Roses
12 La Nuit
13 Une Larme Aux Nuages
14 Le Barbu Sans Barbe
15 C'Est Ma Vie

CD 2
1 Les Collines De Rabiah
2 Cara Italia
3 Des Petits Riens
4 Fragile
5 Imagination
6 Je M'En Vais
7 La Malice
8 Parlons - En Du Bonheur
9 Pauvre Liberte
10 Vincent
11 Plus Fort Que Le Temps
12 Et Ton Nom
13 J'Ai Plus De Couleur
14 Julie Et L'Enfant
15 J'suis Toujours La
16 Maintenant Ou Jamais
17 Maman Si Tu 'M' Voyais

Доп. информация:
CD1
Код:
Exact Audio Copy V0.99 prebeta 4 from 23. January 2008
Отчёт EAC об извлечении, выполненном 3. ноября 2009, 23:01
Salvatore Adamo / C`est Ma Vie cd1
Дисковод: SlimtypeDVD A  DS8A1P   Adapter: 0  ID: 0
Режим чтения                 : Достоверность
Использование точного потока : Да
Отключение кэша аудио        : Да
Использование указателей C2  : Нет
Коррекция смещения при чтении                     : 594
Способность читать области Lead-in и Lead-out     : Нет
Заполнение пропущенных сэмплов тишиной            : Да
Удаление блоков с тишиной в начале и конце        : Нет
При вычислениях CRC использовались нулевые сэмплы : Да
Интерфейс                                         : Встроенный Win32-интерфейс для Win NT/2000
Выходной формат : Внутренние WAV-операции
Формат сэмплов  : 44.100 Гц; 16 бит; стерео
TOC извлечённого CD
     Трек |   Старт  | Длительность | Начальный сектор | Конечный сектор
    ---------------------------------------------------------------------
       1  |  0:00.00 |    2:57.12   |           0      |      13286
       2  |  2:57.12 |    3:00.57   |       13287      |      26843
       3  |  5:57.69 |    2:59.43   |       26844      |      40311
       4  |  8:57.37 |    2:48.33   |       40312      |      52944
       5  | 11:45.70 |    2:28.36   |       52945      |      64080
       6  | 14:14.31 |    4:04.70   |       64081      |      82450
       7  | 18:19.26 |    2:52.38   |       82451      |      95388
       8  | 21:11.64 |    3:04.36   |       95389      |     109224
       9  | 24:16.25 |    3:24.30   |      109225      |     124554
      10  | 27:40.55 |    3:04.21   |      124555      |     138375
      11  | 30:45.01 |    3:23.59   |      138376      |     153659
      12  | 34:08.60 |    3:07.15   |      153660      |     167699
      13  | 37:16.00 |    2:58.12   |      167700      |     181061
      14  | 40:14.12 |    2:37.69   |      181062      |     192905
      15  | 42:52.06 |    3:58.68   |      192906      |     210823
Характеристики диапазона извлечения и сообщения об ошибках
Выбранный диапазон
     Имя файла C:\Documents and Settings\User\My Documents\Salvatore Adamo - C`est Ma Vie cd1.wav
     Пиковый уровень 100.0 %
     Качество диапазона 100.0 %
     CRC копии 43DED13E
     Копирование... OK
Ошибок не произошло
AccurateRip: сводка
Трек  1  точность не определена (достоверность 1)  [8EEB4B65], AccurateRip вернул [B16EB0AF]
Трек  2  точное извлечение (доверие 1)  [A011B6CE]
Трек  3  точное извлечение (доверие 1)  [835385F9]
Трек  4  точное извлечение (доверие 1)  [DE7C9FE1]
Трек  5  точное извлечение (доверие 1)  [28CEFBAD]
Трек  6  точное извлечение (доверие 1)  [E2B13BCC]
Трек  7  точное извлечение (доверие 1)  [80A25A2E]
Трек  8  точное извлечение (доверие 1)  [F1E77B49]
Трек  9  точное извлечение (доверие 1)  [DF8626E2]
Трек 10  точное извлечение (доверие 1)  [EADD3A7F]
Трек 11  точное извлечение (доверие 1)  [D72412A4]
Трек 12  точное извлечение (доверие 1)  [29048DB1]
Трек 13  точное извлечение (доверие 1)  [A0F79826]
Трек 14  точное извлечение (доверие 1)  [0A229EAD]
Трек 15  точное извлечение (доверие 1)  [90B426A1]
14 трек(и) скопированы точно
 1 трек(и) не удалось проверить на точность
Некоторые треки не прошли проверку на точность
Конец отчёта
Код:
-----------------------
DON'T MODIFY THIS FILE
-----------------------
PERFORMER: auCDtect Task Manager, ver. 1.0.0 Stable build 1.0.0.0
Copyright (c) 2008, 2009 y-soft. All rights reserved
[url=http://y-soft.110mb.com]http://y-soft.110mb.com[/url]
ANALYZER: auCDtect: CD records authenticity detector, version 0.8.2
Copyright (c) 2004 Oleg Berngardt. All rights reserved.
Copyright (c) 2004 Alexander Djourik. All rights reserved.
FILE: Salvatore Adamo - C`est Ma Vie cd1.ape
  Size: 318226452 Hash: EE6FBFC4B44C0C3A9D64DB66A5E11F1B Accuracy: -m0
  Conclusion: CDDA 100%
  Signature: FB5F92263DE13F053CE1141A3A4431EEDFC38C81
CD2
Код:
Exact Audio Copy V0.99 prebeta 4 from 23. January 2008
Отчёт EAC об извлечении, выполненном 4. ноября 2009, 1:45
Salvatore Adamo / C`est Ma Vie cd2
Дисковод: SlimtypeDVD A  DS8A1P   Adapter: 0  ID: 0
Режим чтения                 : Достоверность
Использование точного потока : Да
Отключение кэша аудио        : Да
Использование указателей C2  : Нет
Коррекция смещения при чтении                     : 594
Способность читать области Lead-in и Lead-out     : Нет
Заполнение пропущенных сэмплов тишиной            : Да
Удаление блоков с тишиной в начале и конце        : Нет
При вычислениях CRC использовались нулевые сэмплы : Да
Интерфейс                                         : Встроенный Win32-интерфейс для Win NT/2000
Выходной формат : Внутренние WAV-операции
Формат сэмплов  : 44.100 Гц; 16 бит; стерео
TOC извлечённого CD
     Трек |   Старт  | Длительность | Начальный сектор | Конечный сектор
    ---------------------------------------------------------------------
       1  |  0:00.00 |    4:17.34   |           0      |      19308
       2  |  4:17.34 |    4:20.39   |       19309      |      38847
       3  |  8:37.73 |    4:18.47   |       38848      |      58244
       4  | 12:56.45 |    3:53.74   |       58245      |      75793
       5  | 16:50.44 |    4:02.73   |       75794      |      94016
       6  | 20:53.42 |    3:13.52   |       94017      |     108543
       7  | 24:07.19 |    4:56.29   |      108544      |     130772
       8  | 29:03.48 |    3:50.09   |      130773      |     148031
       9  | 32:53.57 |    3:49.71   |      148032      |     165277
      10  | 36:43.53 |    4:40.51   |      165278      |     186328
      11  | 41:24.29 |    4:34.12   |      186329      |     206890
      12  | 45:58.41 |    4:54.62   |      206891      |     229002
      13  | 50:53.28 |    3:28.43   |      229003      |     244645
      14  | 54:21.71 |    2:47.17   |      244646      |     257187
      15  | 57:09.13 |    4:37.49   |      257188      |     278011
      16  | 61:46.62 |    4:38.39   |      278012      |     298900
      17  | 66:25.26 |    4:12.06   |      298901      |     317806
Характеристики диапазона извлечения и сообщения об ошибках
Выбранный диапазон
     Имя файла C:\Documents and Settings\User\My Documents\Salvatore Adamo - C`est Ma Vie cd2.wav
     Пиковый уровень 96.6 %
     Качество диапазона 100.0 %
     CRC копии 83446F0B
     Копирование... OK
Ошибок не произошло
AccurateRip: сводка
Трек  1  точное извлечение (доверие 1)  [E9507EAE]
Трек  2  точное извлечение (доверие 1)  [2F6AFF94]
Трек  3  точное извлечение (доверие 1)  [77B3DF9C]
Трек  4  точное извлечение (доверие 1)  [769388EA]
Трек  5  точное извлечение (доверие 1)  [DF598D30]
Трек  6  точное извлечение (доверие 1)  [CADAD5F4]
Трек  7  точное извлечение (доверие 1)  [F05B6F5E]
Трек  8  точное извлечение (доверие 1)  [3BC0128A]
Трек  9  точное извлечение (доверие 1)  [A335A24A]
Трек 10  точное извлечение (доверие 1)  [D6F0AB17]
Трек 11  точное извлечение (доверие 1)  [71110460]
Трек 12  точное извлечение (доверие 1)  [2F8494D2]
Трек 13  точное извлечение (доверие 1)  [2A71EA2F]
Трек 14  точное извлечение (доверие 1)  [C4A542E7]
Трек 15  точное извлечение (доверие 1)  [C4780645]
Трек 16  точное извлечение (доверие 1)  [82AC7AA8]
Трек 17  точное извлечение (доверие 1)  [62577276]
Все треки извлечены точно
Конец отчёта
Код:
-----------------------
DON'T MODIFY THIS FILE
-----------------------
PERFORMER: auCDtect Task Manager, ver. 1.0.0 Stable build 1.0.0.0
Copyright (c) 2008, 2009 y-soft. All rights reserved
[url=http://y-soft.110mb.com]http://y-soft.110mb.com[/url]
ANALYZER: auCDtect: CD records authenticity detector, version 0.8.2
Copyright (c) 2004 Oleg Berngardt. All rights reserved.
Copyright (c) 2004 Alexander Djourik. All rights reserved.
FILE: Salvatore Adamo - C`est Ma Vie cd2.ape
  Size: 470745932 Hash: AD685A29A2CD9EF3CDA1647CF8FCABD7 Accuracy: -m0
  Conclusion: CDDA 99%
  Signature: 7FC42F35FD44084E5E5CF2E781026A0F2CB983C6
А вот и
ещё раз...
Прошу обратить внимание на то, что весь материал, представленный выше, предназначен исключительно для ознакомления! Приобретайте, пожалуйста, легальные диски, которые вне всякого сомнения станут достойным украшением вашей коллекции! В соответствие с ФЗ "Об авторском праве и смежных правах", Вы должны удалить все вышеозначенные трэки со своего жесткого диска и иных носителей сразу после ознакомления.

Правила, инструкции, FAQ!!!
Торрент  Добавлен [01 янв 2020, 23:07] Скачать торрент Магнет ссылка
Скачать торрент
[ Размер 16.58 КБ / Просмотров 3 ]

Статус
Проверен 
 
Размер  764.1 МБ
Приватный: Нет (DHT включён)
.torrent скачан  0
 


     Отправить личное сообщение
   
Страница 1 из 1
Показать сообщения за:  Поле сортировки  
Начать новую тему Ответить на тему


Сейчас этот форум просматривают: нет зарегистрированных пользователей и гости: 0


Вы не можете начинать темы
Вы не можете отвечать на сообщения
Вы не можете редактировать свои сообщения
Вы не можете удалять свои сообщения
Вы не можете добавлять вложения

Перейти:  
cron