Начать новую тему Ответить на тему
Статистика раздачи
Размер: 114.29 МБ | Добавлен: 26 мар 2019, 19:10 | Скачали: 0
Сидеров: 0  [0 байт/сек]    Личеров: 0  [0 байт/сек]
Пред. тема | След. тема 

Автор
Сообщение

СообщениеДобавлено: 26 мар 2019, 19:10 

Ответить с цитатой 




Karny Postel and Roy Yarkoni - רחוק מידי (Too Far Away)

Жанр: chamber rock, pop rock, progressive rock
Носитель: CD (EP)
Страна-производитель диска (релиза): Israel
Год издания оригинала: 2014
Издатель (лейбл): Nana disc
Номер по каталогу: 6310
Страна исполнителя (группы) : Israel
Аудио кодек: FLAC (*.flac)
Тип рипа: (tracks + .cue)
Битрейт аудио: lossless
Наличие сканов в содержимом раздачи: full scans, png, 300 dpi
Продолжительность: 17:48
Источник (релизер): Моя коллекция, мой рип
Трэклист:
1. הלכתי 03:27 - я пошла
2. כמה רגעים שקטים 04:44 - несколько тихих моментов
3. דברים שיש להם שיעור 03:51 - вещи, в которых есть урок
4. בטלפון 03:25 - по телефону
5. רחוק מדי 02:40 - слишком далеко
Музыка - Рой Яркони
Код:
Exact Audio Copy V1.3 from 2. September 2016
EAC extraction logfile from 11. March 2017, 13:34
קרני פוסטל ורועי ירקוני / רחוק מידי
Used drive  : HL-DT-STDVDRAM GH24NSB0   Adapter: 1  ID: 0
Read mode               : Secure
Utilize accurate stream : Yes
Defeat audio cache      : Yes
Make use of C2 pointers : No
Read offset correction                      : 6
Overread into Lead-In and Lead-Out          : No
Fill up missing offset samples with silence : Yes
Delete leading and trailing silent blocks   : No
Null samples used in CRC calculations       : Yes
Used interface                              : Native Win32 interface for Win NT & 2000
Gap handling                                : Appended to previous track
Used output format              : User Defined Encoder
Selected bitrate                : 1024 kBit/s
Quality                         : High
Add ID3 tag                     : No
Command line compressor         : C:\Program Files (x86)\Exact Audio Copy\FLAC\FLAC.EXE
Additional command line options : -V -8 -T "Genre=%genre%" -T "Artist=%artist%" -T "Title=%title%" -T "Album=%albumtitle%" -T "Date=%year%" -T "Tracknumber=%tracknr%" -T "Comment=%comment%" %source%
TOC of the extracted CD
     Track |   Start  |  Length  | Start sector | End sector
    ---------------------------------------------------------
        1  |  0:00.00 |  3:27.15 |         0    |    15539
        2  |  3:27.15 |  4:44.04 |     15540    |    36843
        3  |  8:11.19 |  3:50.52 |     36844    |    54145
        4  | 12:01.71 |  3:12.59 |     54146    |    68604
        5  | 15:14.55 |  2:34.69 |     68605    |    80223
Track  1
     Filename D:\Music\New rips\קרני פוסטל ורועי ירקוני - רחוק מידי - 2014\01 - הלכתי.wav
     Pre-gap length  0:00:02.00
     Peak level 97.7 %
     Extraction speed 1.0 X
     Track quality 100.0 %
     Test CRC D437B24B
     Copy CRC D437B24B
     Track not present in AccurateRip database
     Copy OK
Track  2
     Filename D:\Music\New rips\קרני פוסטל ורועי ירקוני - רחוק מידי - 2014\02 - כמה רגעים.wav
     Peak level 97.7 %
     Extraction speed 1.2 X
     Track quality 100.0 %
     Test CRC B82F963E
     Copy CRC B82F963E
     Track not present in AccurateRip database
     Copy OK
Track  3
     Filename D:\Music\New rips\קרני פוסטל ורועי ירקוני - רחוק מידי - 2014\03 - דברים שיש להם שיעור.wav
     Peak level 89.1 %
     Extraction speed 1.2 X
     Track quality 100.0 %
     Test CRC 830D08B9
     Copy CRC 830D08B9
     Track not present in AccurateRip database
     Copy OK
Track  4
     Filename D:\Music\New rips\קרני פוסטל ורועי ירקוני - רחוק מידי - 2014\04 - בטלפון.wav
     Peak level 97.7 %
     Extraction speed 1.3 X
     Track quality 100.0 %
     Test CRC B0423BC7
     Copy CRC B0423BC7
     Track not present in AccurateRip database
     Copy OK
Track  5
     Filename D:\Music\New rips\קרני פוסטל ורועי ירקוני - רחוק מידי - 2014\05 - רחוק מידי.wav
     Peak level 97.7 %
     Extraction speed 1.3 X
     Track quality 100.0 %
     Test CRC 38D7F59F
     Copy CRC 38D7F59F
     Track not present in AccurateRip database
     Copy OK
None of the tracks are present in the AccurateRip database
No errors occurred
End of status report
==== Log checksum EC532A9617D3645E3599DE34436154308D6512B42D81A08D195E03F0E86CDB15 ====
Код:
REM GENRE "Chamber rock"
REM DATE 2014
REM DISCID 39042D05
REM COMMENT "ExactAudioCopy v1.3"
PERFORMER "קרני פוסטל ורועי ירקוני"
TITLE "רחוק מידי"
REM COMPOSER ""
FILE "01 - הלכתי.wav" WAVE
  TRACK 01 AUDIO
    TITLE "הלכתי"
    PERFORMER "קרני פוסטל ורועי ירקוני"
    REM COMPOSER ""
    INDEX 01 00:00:00
FILE "02 - כמה רגעים.wav" WAVE
  TRACK 02 AUDIO
    TITLE "כמה רגעים"
    PERFORMER "קרני פוסטל ורועי ירקוני"
    REM COMPOSER ""
    INDEX 01 00:00:00
FILE "03 - דברים שיש להם שיעור.wav" WAVE
  TRACK 03 AUDIO
    TITLE "דברים שיש להם שיעור"
    PERFORMER "קרני פוסטל ורועי ירקוני"
    REM COMPOSER ""
    INDEX 01 00:00:00
FILE "04 - בטלפון.wav" WAVE
  TRACK 04 AUDIO
    TITLE "בטלפון"
    PERFORMER "קרני פוסטל ורועי ירקוני"
    REM COMPOSER ""
    INDEX 01 00:00:00
FILE "05 - רחוק מידי.wav" WAVE
  TRACK 05 AUDIO
    TITLE "רחוק מידי"
    PERFORMER "קרני פוסטל ורועי ירקוני"
    REM COMPOSER ""
    INDEX 01 00:00:00

Карни Постель - виолончель, вокал
Рой Яркони - клавишные
Омер Хершман - гитары, басс, программирование ударных
Дирк Конеш - труба (1)
Рой Херман - труба (2,4)
Мая Ли Роман - скрипка
Нир Ваксман - сэмплер, бит - бокс
Гиори Полит - ударные

Правила, инструкции, FAQ!!!
Торрент  Добавлен [26 мар 2019, 19:10] Скачать торрент Магнет ссылка
Скачать торрент
[ Размер 19.11 КБ / Просмотров 1 ]

Статус
Проверен 
 
Размер  114.29 МБ
Приватный: Нет (DHT включён)
.torrent скачан  0
 


     Отправить личное сообщение
   
Страница 1 из 1
Показать сообщения за:  Поле сортировки  
Начать новую тему Ответить на тему


Сейчас этот форум просматривают: нет зарегистрированных пользователей и гости: 0


Вы не можете начинать темы
Вы не можете отвечать на сообщения
Вы не можете редактировать свои сообщения
Вы не можете удалять свои сообщения
Вы не можете добавлять вложения

Перейти:  
cron