Начать новую тему Ответить на тему
Статистика раздачи
Размер: 317.73 МБ | Добавлен: 26 мар 2019, 20:55 | Скачали: 0
Сидеров: 0  [0 байт/сек]    Личеров: 0  [0 байт/сек]
Пред. тема | След. тема 

Автор
Сообщение

СообщениеДобавлено: 26 мар 2019, 20:55 

Ответить с цитатой 

the Divine comedy - «Regeneration»

Жанр: Chamber pop
Год выпуска диска: 2001
Производитель диска: UK
Аудио кодек: FLAC
Тип рипа: tracks+.cue
Битрейт аудио: lossless
Продолжительность: 49:47
Лейбл: Parlophone/EMI
Источник: рип найден в сети
Трэклист:
1. Timestretched
2. Bad ambassador
3. Perfect lovesong
4. Note to self
5. Lost property
6. Eye of the needle
7. Love what you do
8. Dumb it down
9. Mastermind
10. Regeneration
11. the Beauty regime
Доп. информация: седьмой студийный альбом the Divine comedy.
Отчёт EAC об извлечении, выполненном 26. ноября 2007, 9:10 для диска:
The Divine Comedy / Regeneration
Дисковод: _NEC DVD_RW ND-4571A Adapter: 1 ID: 0
Режим чтения: Достоверный (C2: нет, Точный поток: да, Отключение кэша: нет)
Коррекция смещения при чтении: 48
Способность читать области Lead-in и Lead-out : Нет
Выходной формат: C:\Program Files\FLAC\flac.exe (Пользовательский кодировщик)
320 kBit/s
Дополнительные параметры: -8 -V -T "artist=%a" -T "title=%t" -T "album=%g" -T "date=%y" -T "tracknumber=%n" -T "genre=%m" %s
Другие параметры:
Заполнение пропущенных сэмплов тишиной : Да
Удаление блоков с тишиной в начале и конце : Нет
Встроенный Win32-интерфейс для Win NT/2000
Трек 1
Имя файла F:\__TORRENTS__\Divine Comedy, the - Regeneration (2001) [FLAC]\01 - Timestretched.wav
Длина предзазора 0:00:02.00
Пиковый уровень 98.2 %
Качество трека 99.9 %
CRC теста F58A2474
CRC копии F58A2474
Копирование... OK
Трек 2
Имя файла F:\__TORRENTS__\Divine Comedy, the - Regeneration (2001) [FLAC]\02 - Bad Ambassador.wav
Пиковый уровень 98.6 %
Качество трека 100.0 %
CRC теста 573FC958
CRC копии 573FC958
Копирование... OK
Трек 3
Имя файла F:\__TORRENTS__\Divine Comedy, the - Regeneration (2001) [FLAC]\03 - Perfect Lovesong.wav
Пиковый уровень 98.7 %
Качество трека 100.0 %
CRC теста ED5D1A29
CRC копии ED5D1A29
Копирование... OK
Трек 4
Имя файла F:\__TORRENTS__\Divine Comedy, the - Regeneration (2001) [FLAC]\04 - Note To Self.wav
Пиковый уровень 99.3 %
Качество трека 100.0 %
CRC теста 9EE1AF4B
CRC копии 9EE1AF4B
Копирование... OK
Трек 5
Имя файла F:\__TORRENTS__\Divine Comedy, the - Regeneration (2001) [FLAC]\05 - Lost Property.wav
Пиковый уровень 98.4 %
Качество трека 100.0 %
CRC теста DE102191
CRC копии DE102191
Копирование... OK
Трек 6
Имя файла F:\__TORRENTS__\Divine Comedy, the - Regeneration (2001) [FLAC]\06 - Eye Of The Needle.wav
Пиковый уровень 98.4 %
Качество трека 100.0 %
CRC теста 565ADBA6
CRC копии 565ADBA6
Копирование... OK
Трек 7
Имя файла F:\__TORRENTS__\Divine Comedy, the - Regeneration (2001) [FLAC]\07 - Love What You Do.wav
Пиковый уровень 98.8 %
Качество трека 100.0 %
CRC теста 7AA6C278
CRC копии 7AA6C278
Копирование... OK
Трек 8
Имя файла F:\__TORRENTS__\Divine Comedy, the - Regeneration (2001) [FLAC]\08 - Dumb It Down.wav
Пиковый уровень 99.2 %
Качество трека 100.0 %
CRC теста 8666A791
CRC копии 8666A791
Копирование... OK
Трек 9
Имя файла F:\__TORRENTS__\Divine Comedy, the - Regeneration (2001) [FLAC]\09 - Mastermind.wav
Длина предзазора 0:00:00.17
Пиковый уровень 98.8 %
Качество трека 100.0 %
CRC теста A953B243
CRC копии A953B243
Копирование... OK
Трек 10
Имя файла F:\__TORRENTS__\Divine Comedy, the - Regeneration (2001) [FLAC]\10 - Regeneration.wav
Пиковый уровень 98.9 %
Качество трека 100.0 %
CRC теста 3AF7F72F
CRC копии 3AF7F72F
Копирование... OK
Трек 11
Имя файла F:\__TORRENTS__\Divine Comedy, the - Regeneration (2001) [FLAC]\11 - The Beauty Regime.wav
Длина предзазора 0:00:01.70
Пиковый уровень 98.5 %
Качество трека 100.0 %
CRC теста 9BDEE0D4
CRC копии 9BDEE0D4
Копирование... OK
Ошибок не произошло
Конец отчёта
AUDIOCHECKER v2.0 beta (build 457) - by Dester - opdester@freemail.hu
~~~~~~~~~~~~~~~~~~~~~~~~~~~~~~~~~~
Started at: среда, 08. 07. 2009. - 18:48.54
11 files found
01 -===- F:\03. Other\rutracker.org\The Divine Comedy - 2001 - Regeneration\01 - Timestretched.flac
Extracted successfully
Conclusion: this track is CDDA with probability 100%
Tempfile successfully deleted.
02 -===- F:\03. Other\rutracker.org\The Divine Comedy - 2001 - Regeneration\02 - Bad Ambassador.flac
Extracted successfully
Conclusion: this track is CDDA with probability 99%
Tempfile successfully deleted.
03 -===- F:\03. Other\rutracker.org\The Divine Comedy - 2001 - Regeneration\03 - Perfect Lovesong.flac
Extracted successfully
Conclusion: this track is CDDA with probability 100%
Tempfile successfully deleted.
04 -===- F:\03. Other\rutracker.org\The Divine Comedy - 2001 - Regeneration\04 - Note To Self.flac
Extracted successfully
Conclusion: this track is CDDA with probability 99%
Tempfile successfully deleted.
05 -===- F:\03. Other\rutracker.org\The Divine Comedy - 2001 - Regeneration\05 - Lost Property.flac
Extracted successfully
Conclusion: this track is CDDA with probability 100%
Tempfile successfully deleted.
06 -===- F:\03. Other\rutracker.org\The Divine Comedy - 2001 - Regeneration\06 - Eye Of The Needle.flac
Extracted successfully
Conclusion: this track is CDDA with probability 100%
Tempfile successfully deleted.
07 -===- F:\03. Other\rutracker.org\The Divine Comedy - 2001 - Regeneration\07 - Love What You Do.flac
Extracted successfully
Conclusion: this track is CDDA with probability 100%
Tempfile successfully deleted.
08 -===- F:\03. Other\rutracker.org\The Divine Comedy - 2001 - Regeneration\08 - Dumb It Down.flac
Extracted successfully
Conclusion: this track is CDDA with probability 100%
Tempfile successfully deleted.
09 -===- F:\03. Other\rutracker.org\The Divine Comedy - 2001 - Regeneration\09 - Mastermind.flac
Extracted successfully
Conclusion: this track is CDDA with probability 100%
Tempfile successfully deleted.
10 -===- F:\03. Other\rutracker.org\The Divine Comedy - 2001 - Regeneration\10 - Regeneration.flac
Extracted successfully
Conclusion: this track is CDDA with probability 100%
Tempfile successfully deleted.
11 -===- F:\03. Other\rutracker.org\The Divine Comedy - 2001 - Regeneration\11 - The Beauty Regime.flac
Extracted successfully
Conclusion: this track is CDDA with probability 100%
Tempfile successfully deleted.
Finished at: среда, 08. 07. 2009. - 18:59.42 (operation time: 0:10.48)
Правила, инструкции, FAQ!!!
Торрент  Добавлен [26 мар 2019, 20:55] Скачать торрент Магнет ссылка
Скачать торрент
[ Размер 2.76 КБ / Просмотров 9 ]

Статус
Проверен 
 
Размер  317.73 МБ
Приватный: Нет (DHT включён)
.torrent скачан  0
 


     Отправить личное сообщение
   
Страница 1 из 1
Показать сообщения за:  Поле сортировки  
Начать новую тему Ответить на тему


Сейчас этот форум просматривают: нет зарегистрированных пользователей и гости: 0


Вы не можете начинать темы
Вы не можете отвечать на сообщения
Вы не можете редактировать свои сообщения
Вы не можете удалять свои сообщения
Вы не можете добавлять вложения

Перейти:  
cron