Начать новую тему Ответить на тему
Статистика раздачи
Размер: 374.79 МБ | Добавлен: 26 мар 2019, 20:55 | Скачали: 1
Сидеров: 0  [0 байт/сек]    Личеров: 0  [0 байт/сек]
Пред. тема | След. тема 

Автор
Сообщение

СообщениеДобавлено: 26 мар 2019, 20:55 

Ответить с цитатой 

the Divine comedy - «Absent friends» [Special edition, 2 CD]

Жанр: Chamber pop
Год выпуска диска: 2004
Производитель диска: UK
Аудио кодек: FLAC
Тип рипа: tracks
Битрейт аудио: lossless
Продолжительность: 45:56 + 15:59
Лейбл: Parlophone/EMI
Источник: рип найден в сети
Трэклист:
CD 1:
01. Absent friends
02. Sticks & stones
03. Leaving today
04. Come home Billy Bird
05. My imaginary friend
06. the Wreck of the Beautiful
07. Our mutual friend
08. the Happy goth
09. Freedom road
10. Laika's theme
11. Charmed life
CD 2:
01. Idaho
02. Anthem for bored youth
03. Girl least likely
04. All things
Доп. информация: восьмой студийный альбом the Divine comedy.
Отчёт EAC об извлечении, выполненном 27. ноября 2007, 0:17 для диска:
The Divine Comedy / Absent Friends
Дисковод: _NEC DVD_RW ND-4571A Adapter: 1 ID: 0
Режим чтения: Достоверный (C2: нет, Точный поток: да, Отключение кэша: нет)
Коррекция смещения при чтении: 48
Способность читать области Lead-in и Lead-out : Нет
Выходной формат: C:\Program Files\FLAC\flac.exe (Пользовательский кодировщик)
320 kBit/s
Дополнительные параметры: -8 -V -T "artist=%a" -T "title=%t" -T "album=%g" -T "date=%y" -T "tracknumber=%n" -T "genre=%m" %s
Другие параметры:
Заполнение пропущенных сэмплов тишиной : Да
Удаление блоков с тишиной в начале и конце : Нет
Встроенный Win32-интерфейс для Win NT/2000
Трек 1
Имя файла F:\__TORRENTS__\Divine Comedy, the - Absent Friends (2004) [FLAC] {Special Edition}\CD 1\01 - Absent Friends.wav
Длина предзазора 0:00:02.00
Пиковый уровень 97.9 %
Качество трека 100.0 %
CRC теста 9E722AFD
CRC копии 9E722AFD
Копирование... OK
Трек 2
Имя файла F:\__TORRENTS__\Divine Comedy, the - Absent Friends (2004) [FLAC] {Special Edition}\CD 1\02 - Sticks & Stones.wav
Длина предзазора 0:00:00.24
Пиковый уровень 98.8 %
Качество трека 99.9 %
CRC теста E96251EC
CRC копии E96251EC
Копирование... OK
Трек 3
Имя файла F:\__TORRENTS__\Divine Comedy, the - Absent Friends (2004) [FLAC] {Special Edition}\CD 1\03 - Leaving Today.wav
Пиковый уровень 97.6 %
Качество трека 99.9 %
CRC теста EBC8249B
CRC копии EBC8249B
Копирование... OK
Трек 4
Имя файла F:\__TORRENTS__\Divine Comedy, the - Absent Friends (2004) [FLAC] {Special Edition}\CD 1\04 - Come Home Billy Bird.wav
Пиковый уровень 98.7 %
Качество трека 100.0 %
CRC теста 2FADDB65
CRC копии 2FADDB65
Копирование... OK
Трек 5
Имя файла F:\__TORRENTS__\Divine Comedy, the - Absent Friends (2004) [FLAC] {Special Edition}\CD 1\05 - My Imaginary Friend.wav
Пиковый уровень 98.4 %
Качество трека 100.0 %
CRC теста 682C3DDD
CRC копии 682C3DDD
Копирование... OK
Трек 6
Имя файла F:\__TORRENTS__\Divine Comedy, the - Absent Friends (2004) [FLAC] {Special Edition}\CD 1\06 - The Wreck of the Beautiful.wav
Пиковый уровень 97.7 %
Качество трека 99.9 %
CRC теста F2C89FA1
CRC копии F2C89FA1
Копирование... OK
Трек 7
Имя файла F:\__TORRENTS__\Divine Comedy, the - Absent Friends (2004) [FLAC] {Special Edition}\CD 1\07 - Our Mutual Friend.wav
Пиковый уровень 97.7 %
Качество трека 99.9 %
CRC теста CA521E52
CRC копии CA521E52
Копирование... OK
Трек 8
Имя файла F:\__TORRENTS__\Divine Comedy, the - Absent Friends (2004) [FLAC] {Special Edition}\CD 1\08 - The Happy Goth.wav
Пиковый уровень 98.7 %
Качество трека 100.0 %
CRC теста 60F98833
CRC копии 60F98833
Копирование... OK
Трек 9
Имя файла F:\__TORRENTS__\Divine Comedy, the - Absent Friends (2004) [FLAC] {Special Edition}\CD 1\09 - Freedom Road.wav
Пиковый уровень 97.3 %
Качество трека 100.0 %
CRC теста D2B301BA
CRC копии D2B301BA
Копирование... OK
Трек 10
Имя файла F:\__TORRENTS__\Divine Comedy, the - Absent Friends (2004) [FLAC] {Special Edition}\CD 1\10 - Laika's Theme.wav
Пиковый уровень 94.6 %
Качество трека 100.0 %
CRC теста 756E54B9
CRC копии 756E54B9
Копирование... OK
Трек 11
Имя файла F:\__TORRENTS__\Divine Comedy, the - Absent Friends (2004) [FLAC] {Special Edition}\CD 1\11 - Charmed Life.wav
Длина предзазора 0:00:00.24
Пиковый уровень 96.8 %
Качество трека 100.0 %
CRC теста C3A82D8E
CRC копии C3A82D8E
Копирование... OK
Ошибок не произошло
Конец отчёта
Отчёт EAC об извлечении, выполненном 27. ноября 2007, 0:32 для диска:
The Divine Comedy / Absent Friends Companion
Дисковод: _NEC DVD_RW ND-4571A Adapter: 1 ID: 0
Режим чтения: Достоверный (C2: нет, Точный поток: да, Отключение кэша: нет)
Коррекция смещения при чтении: 48
Способность читать области Lead-in и Lead-out : Нет
Выходной формат: C:\Program Files\FLAC\flac.exe (Пользовательский кодировщик)
320 kBit/s
Дополнительные параметры: -8 -V -T "artist=%a" -T "title=%t" -T "album=%g" -T "date=%y" -T "tracknumber=%n" -T "genre=%m" %s
Другие параметры:
Заполнение пропущенных сэмплов тишиной : Да
Удаление блоков с тишиной в начале и конце : Нет
Встроенный Win32-интерфейс для Win NT/2000
Трек 1
Имя файла F:\__TORRENTS__\Divine Comedy, the - Absent Friends (2004) [FLAC] {Special Edition}\CD 2\01 - Idaho.wav
Длина предзазора 0:00:02.00
Пиковый уровень 98.8 %
Качество трека 100.0 %
CRC теста 7A7F55DA
CRC копии 7A7F55DA
Копирование... OK
Трек 2
Имя файла F:\__TORRENTS__\Divine Comedy, the - Absent Friends (2004) [FLAC] {Special Edition}\CD 2\02 - Anthem for bored youth.wav
Длина предзазора 0:00:02.00
Пиковый уровень 83.1 %
Качество трека 100.0 %
CRC теста 213F6AB9
CRC копии 213F6AB9
Копирование... OK
Трек 3
Имя файла F:\__TORRENTS__\Divine Comedy, the - Absent Friends (2004) [FLAC] {Special Edition}\CD 2\03 - Girl least likely.wav
Длина предзазора 0:00:01.70
Пиковый уровень 85.1 %
Качество трека 100.0 %
CRC теста 8FFA38B8
CRC копии 8FFA38B8
Копирование... OK
Трек 4
Имя файла F:\__TORRENTS__\Divine Comedy, the - Absent Friends (2004) [FLAC] {Special Edition}\CD 2\04 - All things.wav
Длина предзазора 0:00:02.24
Пиковый уровень 98.8 %
Качество трека 100.0 %
CRC теста 571678A6
CRC копии 571678A6
Копирование... OK
Ошибок не произошло
Конец отчёта
AUDIOCHECKER v2.0 beta (build 457) - by Dester - opdester@freemail.hu
~~~~~~~~~~~~~~~~~~~~~~~~~~~~~~~~~~
Started at: четверг, 09. 07. 2009. - 17:09.02
15 files found
01 -===- F:\03. Other\rutracker.org\The Divine Comedy - 2004 - Absent friends [Special Edition]\CD 1\01 - Absent Friends.flac
Extracted successfully
Conclusion: this track is CDDA with probability 100%
Tempfile successfully deleted.
02 -===- F:\03. Other\rutracker.org\The Divine Comedy - 2004 - Absent friends [Special Edition]\CD 1\02 - Sticks & Stones.flac
Extracted successfully
Conclusion: this track is CDDA with probability 100%
Tempfile successfully deleted.
03 -===- F:\03. Other\rutracker.org\The Divine Comedy - 2004 - Absent friends [Special Edition]\CD 1\03 - Leaving Today.flac
Extracted successfully
Conclusion: this track is CDDA with probability 100%
Tempfile successfully deleted.
04 -===- F:\03. Other\rutracker.org\The Divine Comedy - 2004 - Absent friends [Special Edition]\CD 1\04 - Come Home Billy Bird.flac
Extracted successfully
Conclusion: this track is CDDA with probability 100%
Tempfile successfully deleted.
05 -===- F:\03. Other\rutracker.org\The Divine Comedy - 2004 - Absent friends [Special Edition]\CD 1\05 - My Imaginary Friend.flac
Extracted successfully
Conclusion: this track is CDDA with probability 100%
Tempfile successfully deleted.
06 -===- F:\03. Other\rutracker.org\The Divine Comedy - 2004 - Absent friends [Special Edition]\CD 1\06 - The Wreck of the Beautiful.flac
Extracted successfully
Conclusion: this track is CDDA with probability 100%
Tempfile successfully deleted.
07 -===- F:\03. Other\rutracker.org\The Divine Comedy - 2004 - Absent friends [Special Edition]\CD 1\07 - Our Mutual Friend.flac
Extracted successfully
Conclusion: this track is CDDA with probability 100%
Tempfile successfully deleted.
08 -===- F:\03. Other\rutracker.org\The Divine Comedy - 2004 - Absent friends [Special Edition]\CD 1\08 - The Happy Goth.flac
Extracted successfully
Conclusion: this track is CDDA with probability 100%
Tempfile successfully deleted.
09 -===- F:\03. Other\rutracker.org\The Divine Comedy - 2004 - Absent friends [Special Edition]\CD 1\09 - Freedom Road.flac
Extracted successfully
Conclusion: this track is CDDA with probability 100%
Tempfile successfully deleted.
10 -===- F:\03. Other\rutracker.org\The Divine Comedy - 2004 - Absent friends [Special Edition]\CD 1\10 - Laika's Theme.flac
Extracted successfully
Conclusion: this track is CDDA with probability 99%
Tempfile successfully deleted.
11 -===- F:\03. Other\rutracker.org\The Divine Comedy - 2004 - Absent friends [Special Edition]\CD 1\11 - Charmed Life.flac
Extracted successfully
Conclusion: this track is CDDA with probability 100%
Tempfile successfully deleted.
12 -===- F:\03. Other\rutracker.org\The Divine Comedy - 2004 - Absent friends [Special Edition]\CD 2\01 - Idaho.flac
Extracted successfully
Conclusion: this track is CDDA with probability 99%
Tempfile successfully deleted.
13 -===- F:\03. Other\rutracker.org\The Divine Comedy - 2004 - Absent friends [Special Edition]\CD 2\02 - Anthem for bored youth.flac
Extracted successfully
Conclusion: this track is CDDA with probability 85%
Tempfile successfully deleted.
14 -===- F:\03. Other\rutracker.org\The Divine Comedy - 2004 - Absent friends [Special Edition]\CD 2\03 - Girl least likely.flac
Extracted successfully
Conclusion: this track is CDDA with probability 100%
Tempfile successfully deleted.
15 -===- F:\03. Other\rutracker.org\The Divine Comedy - 2004 - Absent friends [Special Edition]\CD 2\04 - All things.flac
Extracted successfully
Conclusion: this track is CDDA with probability 100%
Tempfile successfully deleted.
Finished at: четверг, 09. 07. 2009. - 17:33.07 (operation time: 0:24.04)
Правила, инструкции, FAQ!!!
Торрент  Добавлен [26 мар 2019, 20:55] Скачать торрент Магнет ссылка
Скачать торрент
[ Размер 3.41 КБ / Просмотров 17 ]

Статус
Проверен 
 
Размер  374.79 МБ
Приватный: Нет (DHT включён)
.torrent скачан  1
 


     Отправить личное сообщение
   
Страница 1 из 1
Показать сообщения за:  Поле сортировки  
Начать новую тему Ответить на тему


Сейчас этот форум просматривают: нет зарегистрированных пользователей и гости: 0


Вы не можете начинать темы
Вы не можете отвечать на сообщения
Вы не можете редактировать свои сообщения
Вы не можете удалять свои сообщения
Вы не можете добавлять вложения

Перейти:  
cron