Начать новую тему Ответить на тему
Статистика раздачи
Размер: 252.35 МБ | Добавлен: 01 янв 2020, 23:05 | Скачали: 0
Сидеров: 0  [0 байт/сек]    Личеров: 0  [0 байт/сек]
Пред. тема | След. тема 

Автор
Сообщение

СообщениеДобавлено: 01 янв 2020, 23:05 

Ответить с цитатой 

Milva / Quattro Vestiti
Жанр: Canzone italiano, pop, oldies
Страна-производитель диска: EEC
Год издания диска: 1992
Издатель (лейбл): SAAR SRL
Номер по каталогу: cd 10015 aad
Страна: Италия
Аудиокодек: FLAC (*.flac)
Тип рипа: image+.cue
Битрейт аудио: lossless
Продолжительность: 56:54
Источник (релизер): Скачано в сети
Наличие сканов в содержимом раздачи: да
Треклист:
01. Blues Spanish Eyes
02. Quattro Vestiti
03. Tango Italiano
04. Et Maintenant
05. Violino Tzigano
06. Nulla Rimpiangerς
07. Flamenco Rock
08. Il Mare nel Cassetto
09. Milord
10. Tango Della Gelosia
11. Il Primo Mattino del Mondo
12. Mon Homme
13. Les Enfants Du Piree
14. Exodus
15. Vieni Con Noi
16. Estate
17. Symphonie
18. Temptation
Код:
Exact Audio Copy V0.99 prebeta 5 from 4. May 2009
EAC extraction logfile from 4. February 2011, 20:10
Milva / Quattro vestiti
Used drive  : HL-DT-STDVDRAM GH10N   Adapter: 1  ID: 0
Read mode               : Secure
Utilize accurate stream : Yes
Defeat audio cache      : Yes
Make use of C2 pointers : No
Read offset correction                      : 667
Overread into Lead-In and Lead-Out          : No
Fill up missing offset samples with silence : Yes
Delete leading and trailing silent blocks   : No
Null samples used in CRC calculations       : Yes
Used interface                              : Native Win32 interface for Win NT & 2000
Used output format              : User Defined Encoder
Selected bitrate                : 896 kBit/s
Quality                         : High
Add ID3 tag                     : No
Command line compressor         : C:\Program Files\FLAC\flac.exe
Additional command line options : -V -5 -T "artist=%a" -T "title=%t" -T "album=%g" -T "date=%y" -T "tracknumber=%n" -T "genre=%m" -5 %s
TOC of the extracted CD
     Track |   Start  |  Length  | Start sector | End sector
    ---------------------------------------------------------
        1  |  0:00.00 |  2:36.08 |         0    |    11707
        2  |  2:36.08 |  3:43.35 |     11708    |    28467
        3  |  6:19.43 |  4:29.25 |     28468    |    48667
        4  | 10:48.68 |  3:38.12 |     48668    |    65029
        5  | 14:27.05 |  3:20.03 |     65030    |    80032
        6  | 17:47.08 |  2:20.60 |     80033    |    90592
        7  | 20:07.68 |  3:27.17 |     90593    |   106134
        8  | 23:35.10 |  2:58.58 |    106135    |   119542
        9  | 26:33.68 |  3:22.50 |    119543    |   134742
       10  | 29:56.43 |  2:17.02 |    134743    |   145019
       11  | 32:13.45 |  3:11.18 |    145020    |   159362
       12  | 35:24.63 |  2:19.60 |    159363    |   169847
       13  | 37:44.48 |  2:44.20 |    169848    |   182167
       14  | 40:28.68 |  3:01.22 |    182168    |   195764
       15  | 43:30.15 |  2:41.00 |    195765    |   207839
       16  | 46:11.15 |  3:28.05 |    207840    |   223444
       17  | 49:39.20 |  2:56.18 |    223445    |   236662
       18  | 52:35.38 |  4:19.15 |    236663    |   256102
Range status and errors
Selected range
     Filename S:\EAC Rips\Milva - Quatro vestiti\Milva - Quattro vestiti.wav
     Peak level 75.4 %
     Range quality 100.0 %
     Test CRC 5936FB97
     Copy CRC 5936FB97
     Copy OK
No errors occurred
AccurateRip summary
Track  1  not present in database
Track  2  not present in database
Track  3  not present in database
Track  4  not present in database
Track  5  not present in database
Track  6  not present in database
Track  7  not present in database
Track  8  not present in database
Track  9  not present in database
Track 10  not present in database
Track 11  not present in database
Track 12  not present in database
Track 13  not present in database
Track 14  not present in database
Track 15  not present in database
Track 16  not present in database
Track 17  not present in database
Track 18  not present in database
None of the tracks are present in the AccurateRip database
End of status report
Код:
REM DATE 1992
REM DISCID 0D0D5612
REM COMMENT "ExactAudioCopy v0.99pb5"
PERFORMER "Milva"
TITLE "Quattro vestiti"
FILE "Milva - Quattro vestiti.flac" WAVE
  TRACK 01 AUDIO
    TITLE "Blues Spanish Eyes"
    PERFORMER "Milva"
    INDEX 01 00:00:00
  TRACK 02 AUDIO
    TITLE "Quattro Vestiti"
    PERFORMER "Milva"
    INDEX 01 02:36:08
  TRACK 03 AUDIO
    TITLE "Tango Italiano"
    PERFORMER "Milva"
    INDEX 01 06:19:43
  TRACK 04 AUDIO
    TITLE "Et Maintenant"
    PERFORMER "Milva"
    INDEX 01 10:48:68
  TRACK 05 AUDIO
    TITLE "Violino Tzigano"
    PERFORMER "Milva"
    INDEX 01 14:27:05
  TRACK 06 AUDIO
    TITLE "Nulla Rimpiangerт"
    PERFORMER "Milva"
    INDEX 01 17:47:08
  TRACK 07 AUDIO
    TITLE "Flamenco Rock"
    PERFORMER "Milva"
    INDEX 01 20:07:68
  TRACK 08 AUDIO
    TITLE "Il Mare nel Cassetto"
    PERFORMER "Milva"
    INDEX 01 23:35:10
  TRACK 09 AUDIO
    TITLE "Milord"
    PERFORMER "Milva"
    INDEX 01 26:33:68
  TRACK 10 AUDIO
    TITLE "Tango Della Gelosia"
    PERFORMER "Milva"
    INDEX 01 29:56:43
  TRACK 11 AUDIO
    TITLE "Il Primo Mattino del Mondo"
    PERFORMER "Milva"
    INDEX 01 32:13:45
  TRACK 12 AUDIO
    TITLE "Mon Homme"
    PERFORMER "Milva"
    INDEX 01 35:24:63
  TRACK 13 AUDIO
    TITLE "Les Enfants Du Piree "
    PERFORMER "Milva"
    INDEX 01 37:44:48
  TRACK 14 AUDIO
    TITLE "Exodus"
    PERFORMER "Milva"
    INDEX 01 40:28:68
  TRACK 15 AUDIO
    TITLE "Vieni Con Noi"
    PERFORMER "Milva"
    INDEX 01 43:30:15
  TRACK 16 AUDIO
    TITLE "Estate"
    PERFORMER "Milva"
    INDEX 01 46:11:15
  TRACK 17 AUDIO
    TITLE "Symphonie"
    PERFORMER "Milva"
    INDEX 01 49:39:20
  TRACK 18 AUDIO
    TITLE "Temptation"
    PERFORMER "Milva"
    INDEX 01 52:35:38
Код:
-----------------------
DON'T MODIFY THIS FILE
-----------------------
PERFORMER: auCDtect Task Manager, ver. 1.5.1RC6 build 1.5.1.7
Copyright (c) 2008-2010 y-soft. All rights reserved
[url=http://y-soft.org]http://y-soft.org[/url]
ANALYZER: auCDtect: CD records authenticity detector, version 0.8.2
Copyright (c) 2004 Oleg Berngardt. All rights reserved.
Copyright (c) 2004 Alexander Djourik. All rights reserved.
FILE: Milva - Quattro vestiti.wav
  Size: 602354494 Hash: 4A534B140FD49427B59D06FBE09202DD Accuracy: -m0
  Conclusion: CDDA 100%
  Signature: C2F42A333AEFED8287AB736D51D818434E8058F3
Код:
CDDA Christiana - The night wants - 1993 [url=http://rutracker.org/viewtopic.php?t=3973946]https://rutracker.org/forum/viewtopic.php?t=3973946[/url]
 CDDA Daniela Mercury 1998 MPBnoJT [url=http://rutracker.org/viewtopic.php?t=3968096]https://rutracker.org/forum/viewtopic.php?t=3968096[/url]
 CDDA Falco (Axel Herrig) 2000 FMA (Falco Meets Amadeus) [url=http://rutracker.org/viewtopic.php?t=3963695]https://rutracker.org/forum/viewtopic.php?t=3963695[/url]
 CDDA Fredrik Kempe 2002 Songs For You Broken Heart [url=http://rutracker.org/viewtopic.php?t=3964025]https://rutracker.org/forum/viewtopic.php?t=3964025[/url]
 CDDA Fredrik Kempe 2004 Boheme [url=http://rutracker.org/viewtopic.php?t=3964043]https://rutracker.org/forum/viewtopic.php?t=3964043[/url]
 CDDA Gerardina Trovato 1993 Gerardina Trovato [url=http://rutracker.org/viewtopic.php?t=3965217]https://rutracker.org/forum/viewtopic.php?t=3965217[/url]
 CDDA Irene Fargo - La voce magica della luna - 1991 [url=http://rutracker.org/viewtopic.php?t=3973774]https://rutracker.org/forum/viewtopic.php?t=3973774[/url]
 CDDA Irene Fargo 1993 Labirinti Del Cuore [url=http://rutracker.org/viewtopic.php?t=3963944]https://rutracker.org/forum/viewtopic.php?t=3963944[/url]
 CDDA Iva Zanicchi 1997 Serie Club [url=http://rutracker.org/viewtopic.php?t=3963798]https://rutracker.org/forum/viewtopic.php?t=3963798[/url]
 CDDA Joan Jett 1979 Joan Jett (1995) [Fan Club Edition] [url=http://rutracker.org/viewtopic.php?t=3966230]https://rutracker.org/forum/viewtopic.php?t=3966230[/url]
 CDDA Kozmic Muffin 1994 Nautilus [url=http://rutracker.org/viewtopic.php?t=3972423]https://rutracker.org/forum/viewtopic.php?t=3972423[/url]
 CDDA Kraftwerk 1997 Computersinfonien 2CD (Live in Karlsruhe 18-10-97 bootleg) [url=http://rutracker.org/viewtopic.php?t=3967532]https://rutracker.org/forum/viewtopic.php?t=3967532[/url]
 CDDA Krystl 2011 Rolling [url=http://rutracker.org/viewtopic.php?t=3967889]https://rutracker.org/forum/viewtopic.php?t=3967889[/url]
 CDDA Malena Ernmann 2009 La Voux Du Nord (2CD) [url=http://rutracker.org/viewtopic.php?t=3963766]https://rutracker.org/forum/viewtopic.php?t=3963766[/url]
 CDDA Martin Matalon - Le Scorpion - 2004 [url=http://rutracker.org/viewtopic.php?t=3973979]https://rutracker.org/forum/viewtopic.php?t=3973979[/url]
 CDDA Matia Bazar 2011 Fantasia-Best & Rariries [url=http://rutracker.org/viewtopic.php?t=3958081]https://rutracker.org/forum/viewtopic.php?t=3958081[/url]
 CDDA Milva 1992 Quattro Vestiti [url=http://rutracker.org/viewtopic.php?t=3968377]https://rutracker.org/forum/viewtopic.php?t=3968377[/url]
 CDDA Petra Berger 2001 Eternal Woman [url=http://rutracker.org/viewtopic.php?t=3963834]https://rutracker.org/forum/viewtopic.php?t=3963834[/url]
 CDDA Raf 1996 Collezione Temporanea [url=http://rutracker.org/viewtopic.php?t=3971782]https://rutracker.org/forum/viewtopic.php?t=3971782[/url]
 CDDA Robert Stanton - Acoustic Storm - 1997 [url=http://rutracker.org/viewtopic.php?t=3973967]https://rutracker.org/forum/viewtopic.php?t=3973967[/url]
 CDDA Susanna Borsch - Off-Limits - 2006 [url=http://rutracker.org/viewtopic.php?t=3973958]https://rutracker.org/forum/viewtopic.php?t=3973958[/url]
 CDDA VA - 1991 Les Plus Grandes Chansons [url=http://rutracker.org/viewtopic.php?t=3968241]https://rutracker.org/forum/viewtopic.php?t=3968241[/url]
 CDDA VA - 54* Sanremo - Festival della Canzone Italiana - 2004 [url=http://rutracker.org/viewtopic.php?t=3977214]https://rutracker.org/forum/viewtopic.php?t=3977214[/url]
 CDDA VA - Ciao Italia (2CD) 2001 [url=http://rutracker.org/viewtopic.php?t=3967837]https://rutracker.org/forum/viewtopic.php?t=3967837[/url]
 CDDA VA - Greatest hits of the 80's (8CD Box) - 1998 [url=http://rutracker.org/viewtopic.php?t=3977281]https://rutracker.org/forum/viewtopic.php?t=3977281[/url]
 CDDA VA - Love Ring Best 2000 [url=http://rutracker.org/viewtopic.php?t=3967694]https://rutracker.org/forum/viewtopic.php?t=3967694[/url]
 CDDA VA - More Greatest hits of the 80's (8CD Box) - 2000 [url=http://rutracker.org/viewtopic.php?t=3975264]https://rutracker.org/forum/viewtopic.php?t=3975264[/url]
 CDDA VA - Sanremo 2002 (2 CD) [url=http://rutracker.org/viewtopic.php?t=3964272]https://rutracker.org/forum/viewtopic.php?t=3964272[/url]
 CDDA VA - Sanremo 2006 (2 CD) [url=http://rutracker.org/viewtopic.php?t=3964199]https://rutracker.org/forum/viewtopic.php?t=3964199[/url]
 CDDA VA - Sanremo 2012 [url=http://rutracker.org/viewtopic.php?t=3966923]https://rutracker.org/forum/viewtopic.php?t=3966923[/url]
 CDDA VA - Super Sanremo 2012 I Grandi Successi del Festival [url=http://rutracker.org/viewtopic.php?t=3966899]https://rutracker.org/forum/viewtopic.php?t=3966899[/url]
 CDDA VA 1993 I Protagonisti Vol 1 [url=http://rutracker.org/viewtopic.php?t=3968502]https://rutracker.org/forum/viewtopic.php?t=3968502[/url]
 CDDA VA 1993 I Protagonisti Vol 2 [url=http://rutracker.org/viewtopic.php?t=3971195]https://rutracker.org/forum/viewtopic.php?t=3971195[/url]
 CDDA VA 2010 Rock Mantique Top 100 Vol.3 [5 CD BOX] [url=http://rutracker.org/viewtopic.php?t=3971805]https://rutracker.org/forum/viewtopic.php?t=3971805[/url]
 CDDA Vincent Persichetti - Complete Piano Sonatas - 2008 [url=http://rutracker.org/viewtopic.php?t=3973816]https://rutracker.org/forum/viewtopic.php?t=3973816[/url]
Правила, инструкции, FAQ!!!
Торрент  Добавлен [01 янв 2020, 23:05] Скачать торрент Магнет ссылка
Скачать торрент
[ Размер 20.69 КБ / Просмотров 5 ]

Статус
Проверен 
 
Размер  252.35 МБ
Приватный: Нет (DHT включён)
.torrent скачан  0
 


     Отправить личное сообщение
   
Страница 1 из 1
Показать сообщения за:  Поле сортировки  
Начать новую тему Ответить на тему


Сейчас этот форум просматривают: нет зарегистрированных пользователей и гости: 0


Вы не можете начинать темы
Вы не можете отвечать на сообщения
Вы не можете редактировать свои сообщения
Вы не можете удалять свои сообщения
Вы не можете добавлять вложения

Перейти:  
cron