Начать новую тему Ответить на тему
Статистика раздачи
Размер: 241.07 МБ | Добавлен: 19 фев 2021, 21:15 | Скачали: 0
Сидеров: 10  [0 байт/сек]    Личеров: 3  [0 байт/сек]
Пред. тема | След. тема 

Автор
Сообщение

СообщениеДобавлено: 19 фев 2021, 21:15 

Ответить с цитатой 

Dakh Daughters - Make Up

#777Жанр: Cabaret, Jazz, Folk
Носитель: STREAM
Страна-производитель диска (релиза): UA
Год издания: 2021
Издатель (лейбл): Self-Released
Страна исполнителя (группы): UA
Аудиокодек: FLAC (*.flac)
Тип рипа: tracks
Продолжительность: 00:42:45
Источник: Deezer
Наличие сканов в содержимом раздачи: нет
Треклист:01. I Want (03:09)
02. Suknya V Trusakh (03:44)
03. Shkoda/NeShkoda (03:01)
04. When I Was Thirty Six (04:09)
05. Galya (02:01)
06. Vals Alisy (03:42)
07. Khtila Tila (03:20)
08. Nemaye Chasu (10:36)
09. The Artist (02:23)
10. Make Up (03:27)
11. Rozy (03:13)
Код:
-----------------------
DON'T MODIFY THIS FILE
-----------------------
PERFORMER: auCDtect Task Manager, ver. 1.6.0 RC1 build 1.6.0.1
Copyright (c) 2008-2010 y-soft. All rights reserved
[url=http://y-soft.org]http://y-soft.org[/url]
ANALYZER: auCDtect: CD records authenticity detector, version 0.8.2
Copyright (c) 2004 Oleg Berngardt. All rights reserved.
Copyright (c) 2004 Alexander Djourik. All rights reserved.
FILE: 11. Rozy.flac
Size: 20306185 Hash: F8F4E95567B76DE0DFBA8D7606FFD0AE Accuracy: -m0
Conclusion: CDDA 100%
Signature: 318E9B887C862E08DA46BBAEBFC2E920094F5C12
FILE: 10. Make Up.flac
Size: 23705294 Hash: EC7AD01213D483823F9D8C6205FD77B2 Accuracy: -m0
Conclusion: CDDA 100%
Signature: 35D6B326ECA5E9DA6033F98EE6E19F7B8D251DA5
FILE: 09. The Artist.flac
Size: 11764421 Hash: 2E7BBCF9A80DE6D7178FD44679B30661 Accuracy: -m0
Conclusion: CDDA 99%
Signature: 34A7699DFB236F6E7096F039F5666FBD4A754AD8
FILE: 08. Nemaye Chasu.flac
Size: 57714465 Hash: 505C51BFA3FCCB47A2473C664263EF71 Accuracy: -m0
Conclusion: CDDA 99%
Signature: 44944EF4C6D6173029F636EACD7353619F61E1DD
FILE: 07. Khtila Tila.flac
Size: 18594191 Hash: A974BEB8D144817C12439D1C24F5C873 Accuracy: -m0
Conclusion: CDDA 100%
Signature: DE2EDC159804EF543DF746A2E79A2F8243810EC2
FILE: 06. Vals Alisy.flac
Size: 23323615 Hash: EEA9ECC053B3B2C351DE4055C3A3F2D9 Accuracy: -m0
Conclusion: CDDA 100%
Signature: F5C7AD31264D711B7681749DB90DAE768321FD26
FILE: 05. Galya.flac
Size: 10851070 Hash: 825D7CF7F88EBD8FF717F34777169420 Accuracy: -m0
Conclusion: CDDA 99%
Signature: E465A3ABD33E0A6EE07298E011C1E96B308A3A6B
FILE: 04. When I Was Thirty Six.flac
Size: 23009577 Hash: 1BEC103EDDBCAA744EE9F8074FA58CDE Accuracy: -m0
Conclusion: CDDA 100%
Signature: EAF1E2FEEBDA2213625E505D8E4C43B5CA8C3A6A
FILE: 03. Shkoda_NeShkoda.flac
Size: 20078696 Hash: 610429E4CCBD8F6F74C88003D93DBEDF Accuracy: -m0
Conclusion: CDDA 100%
Signature: 1BD56A0EBE4C0A932E9C05B69D38298F0093C12C
FILE: 02. Suknya V Trusakh.flac
Size: 22898823 Hash: B96E3E4659EBEEF6BE8E7433497705B9 Accuracy: -m0
Conclusion: CDDA 100%
Signature: 554B2FB03C5545FFC9EF11AF62D4F70C8BD760AC
FILE: 01. I Want.flac
Size: 20362800 Hash: 233177720E43E87BAA7AE0309B232F49 Accuracy: -m0
Conclusion: CDDA 99%
Signature: B15DA9229792F3DC6A6E869840197E0EEFA059C7
Код:
foobar2000 1.6.4 / Dynamic Range Meter 1.1.1
log date: 2021-02-15 03:04:30
--------------------------------------------------------------------------------
Analyzed: Dakh Daughters / Make Up
--------------------------------------------------------------------------------
DR Peak RMS Duration Track
--------------------------------------------------------------------------------
DR7 -0.50 dB -8.92 dB 3:09 01-I Want
DR6 -0.72 dB -9.28 dB 3:44 02-Suknya V Trusakh
DR6 -0.50 dB -8.81 dB 3:01 03-Shkoda/NeShkoda
DR7 -2.04 dB -10.66 dB 4:09 04-When I Was Thirty Six
DR5 -0.50 dB -9.05 dB 2:01 05-Galya
DR6 -0.50 dB -8.85 dB 3:42 06-Vals Alisy
DR6 -0.50 dB -9.45 dB 3:20 07-Khtila Tila
DR5 -1.06 dB -10.95 dB 10:36 08-Nemaye Chasu
DR7 -1.90 dB -11.67 dB 2:23 09-The Artist
DR6 -0.50 dB -9.14 dB 3:27 10-Make Up
DR6 -0.72 dB -9.62 dB 3:13 11-Rozy
--------------------------------------------------------------------------------
Number of tracks: 11
Official DR value: DR6
Samplerate: 44100 Hz
Channels: 2
Bits per sample: 16
Bitrate: 841 kbps
Codec: FLAC
================================================================================
Правила, инструкции, FAQ!!!
Торрент  Добавлен [19 фев 2021, 21:15] Скачать торрент Магнет ссылка
Скачать торрент
[ Размер 19.89 КБ / Просмотров 11 ]

Статус
Проверен 
 
Размер  241.07 МБ
Приватный: Нет (DHT включён)
.torrent скачан  0
 


     Отправить личное сообщение
   
Страница 1 из 1
Показать сообщения за:  Поле сортировки  
Начать новую тему Ответить на тему


Сейчас этот форум просматривают: нет зарегистрированных пользователей и гости: 0


Вы не можете начинать темы
Вы не можете отвечать на сообщения
Вы не можете редактировать свои сообщения
Вы не можете удалять свои сообщения
Вы не можете добавлять вложения

Перейти:  
cron