Начать новую тему Ответить на тему
Статистика раздачи
Размер: 300.51 МБ | Добавлен: 01 янв 2020, 22:49 | Скачали: 0
Сидеров: 0  [0 байт/сек]    Личеров: 0  [0 байт/сек]
Пред. тема | След. тема 

Автор
Сообщение

СообщениеДобавлено: 01 янв 2020, 22:49 

Ответить с цитатой 

Hildegard Knef / From Here On It Got Rough
Жанр: Cabaret/Chanson
Носитель: CD
Страна-производитель диска (релиза): United Kingdom
Год издания: 2007
Издатель (лейбл): Warner Music Entertainment
Номер по каталогу: не помню. Кто подскажет?
Страна исполнителя (группы): Германия
Аудиокодек: FLAC (*.flac)
Тип рипа: image+.cue
Битрейт аудио: lossless
Продолжительность: 00:54:19
Источник (релизер): был в руках диск – использовал правильно)
Наличие сканов в содержимом раздачи: нет
Треклист:
1. From Here On It Got Rough (Von nun an ging's bergab) (Album Version)
2. Too Bad (Na und)
3. I Travel Alone
4. Love For Sale
5. This Girl's In Love With You
6. No Sad Songs For Me
7. The Lady Is A Tramp (English Version) (Remastered)
8. In This Old Town - In Dieser Stadt
9. Time Will Say Nothing
10. Without Love
11. Heading For A Love Affair
12. Mack The Knife (Remastered)
13. Fever
14. The Man I Love
15. How Do You Do It
16. Christina
17. Holiday Time (Remastered)
18. I Will Be The Singer
Код:
Exact Audio Copy V1.0 beta 4 from 7. December 2014
Отчёт EAC об извлечении, выполненном 27. июня 2015, 13:27
Hildegard Knef / From Here On It Got Rough
Дисковод: TSSTcorpCDDVDW SN-208DB   Adapter: 1  ID: 0
Режим чтения                 : Достоверность
Использование точного потока : Да
Отключение кэша аудио        : Да
Использование указателей C2  : Нет
Коррекция смещения при чтении                     : 6
Способность читать области Lead-in и Lead-out     : Нет
Заполнение пропущенных сэмплов тишиной            : Да
Удаление блоков с тишиной в начале и конце        : Нет
При вычислениях CRC использовались нулевые сэмплы : Да
Интерфейс                                         : Встроенный Win32-интерфейс для Win NT/2000
Выходной формат          : Пользовательский кодировщик
Выбранный битрейт        : 128 kBit/s
Качество                 : Высокий
Добавление ID3-тега      : Нет
Утилита сжатия           : D:\Program Files\Exact Audio Copy\Flac\flac.exe
Дополнительные параметры : -V -8 -T "Date=%year%" -T "Genre=%genre%" %source%
TOC извлечённого CD
     Трек |   Старт  | Длительность | Начальный сектор | Конечный сектор
    ---------------------------------------------------------------------
       1  |  0:00.00 |    2:39.20   |           0      |      11944
       2  |  2:39.20 |    2:36.68   |       11945      |      23712
       3  |  5:16.13 |    1:45.18   |       23713      |      31605
       4  |  7:01.31 |    3:23.17   |       31606      |      46847
       5  | 10:24.48 |    4:10.69   |       46848      |      65666
       6  | 14:35.42 |    2:22.09   |       65667      |      76325
       7  | 16:57.51 |    2:32.03   |       76326      |      87728
       8  | 19:29.54 |    3:05.63   |       87729      |     101666
       9  | 22:35.42 |    3:06.39   |      101667      |     115655
      10  | 25:42.06 |    2:32.71   |      115656      |     127126
      11  | 28:15.02 |    2:25.41   |      127127      |     138042
      12  | 30:40.43 |    3:10.03   |      138043      |     152295
      13  | 33:50.46 |    3:21.08   |      152296      |     167378
      14  | 37:11.54 |    3:29.59   |      167379      |     183112
      15  | 40:41.38 |    1:54.53   |      183113      |     191715
      16  | 42:36.16 |    3:50.56   |      191716      |     209021
      17  | 46:26.72 |    4:36.05   |      209022      |     229726
      18  | 51:03.02 |    3:16.16   |      229727      |     244442
Характеристики диапазона извлечения и сообщения об ошибках
Выбранный диапазон
     Имя файла D:\Hildegard Knef - From Here On It Got Rough.wav
     Пиковый уровень 100.0 %
     Скорость извлечения 4.1 X
     Качество диапазона 99.9 %
     CRC теста 9D8A6454
     CRC копии 9D8A6454
     Копирование... OK
Ошибок не произошло
Конец отчёта
==== Контрольная сумма отчёта 9902C83839B7CFC0FB20CC76C8B8F615493D152066BB4E9B75ABD9A1A56118B3 ====
Started at: вторник, 17. 05. 2016. - 22:08.47
18 files found
01 -===- D:\Hildegard Knef - From Here On It Got Rough\01 - From Here On It Got Rough (Von nun an ging's bergab) (Album Version.flac
Extracted successfully
Conclusion: this track is MPEG with probability 95%
02 -===- D:\Hildegard Knef - From Here On It Got Rough\02 - Too Bad (Na und).flac
Extracted successfully
Conclusion: this track is CDDA with probability 99%
03 -===- D:\Hildegard Knef - From Here On It Got Rough\03 - I Travel Alone.flac
Extracted successfully
Conclusion: this track is CDDA with probability 100%
04 -===- D:\Hildegard Knef - From Here On It Got Rough\04 - This Girl's In Love With You.flac
Extracted successfully
Conclusion: this track is CDDA with probability 100%
05 -===- D:\Hildegard Knef - From Here On It Got Rough\05 - Love For Sale.flac
Extracted successfully
Conclusion: this track is CDDA with probability 100%
06 -===- D:\Hildegard Knef - From Here On It Got Rough\06 - No Sad Songs For Me.flac
Extracted successfully
Conclusion: this track is CDDA with probability 100%
07 -===- D:\Hildegard Knef - From Here On It Got Rough\07 - The Lady Is A Tramp (English Version) (Remastered).flac
Extracted successfully
Conclusion: this track is CDDA with probability 99%
08 -===- D:\Hildegard Knef - From Here On It Got Rough\08 - In This Old Town - In Dieser Stadt.flac
Extracted successfully
Conclusion: this track is MPEG with probability 95%
09 -===- D:\Hildegard Knef - From Here On It Got Rough\09 - Time Will Say Nothing.flac
Extracted successfully
Conclusion: this track is MPEG with probability 95%
10 -===- D:\Hildegard Knef - From Here On It Got Rough\10 - Without Love (New Version) (Remastered).flac
Extracted successfully
Conclusion: this track is MPEG with probability 95%
11 -===- D:\Hildegard Knef - From Here On It Got Rough\11 - Heading For A Love Affair.flac
Extracted successfully
Conclusion: this track is CDDA with probability 99%
12 -===- D:\Hildegard Knef - From Here On It Got Rough\12 - Mack The Knife (Remastered).flac
Extracted successfully
Conclusion: this track is MPEG with probability 95%
13 -===- D:\Hildegard Knef - From Here On It Got Rough\13 - Fever.flac
Extracted successfully
Conclusion: this track is MPEG with probability 95%
14 -===- D:\Hildegard Knef - From Here On It Got Rough\14 - The Man I Love.flac
Extracted successfully
Conclusion: this track is MPEG with probability 95%
15 -===- D:\Hildegard Knef - From Here On It Got Rough\15 - How Do You Do It.flac
Extracted successfully
Conclusion: this track is CDDA with probability 100%
16 -===- D:\Hildegard Knef - From Here On It Got Rough\16 - Christina.flac
Extracted successfully
Conclusion: this track is CDDA with probability 100%
17 -===- D:\Hildegard Knef - From Here On It Got Rough\17 - Holiday Time (Remastered).flac
Extracted successfully
Conclusion: this track is CDDA with probability 100%
18 -===- D:\Hildegard Knef - From Here On It Got Rough\18 - I Will Be The Singer.flac
Extracted successfully
Conclusion: this track is MPEG with probability 95%
Finished at: вторник, 17. 05. 2016. - 22:12.07 (operation time: 0:03.19)
Из 18 песен- 8 MPEG.
Правила, инструкции, FAQ!!!
Торрент  Добавлен [01 янв 2020, 22:49] Скачать торрент Магнет ссылка
Скачать торрент
[ Размер 12.43 КБ / Просмотров 0 ]

Статус
Проверен 
 
Размер  300.51 МБ
Приватный: Нет (DHT включён)
.torrent скачан  0
 


     Отправить личное сообщение
   
Страница 1 из 1
Показать сообщения за:  Поле сортировки  
Начать новую тему Ответить на тему


Сейчас этот форум просматривают: нет зарегистрированных пользователей и гости: 0


Вы не можете начинать темы
Вы не можете отвечать на сообщения
Вы не можете редактировать свои сообщения
Вы не можете удалять свои сообщения
Вы не можете добавлять вложения

Перейти:  
cron