Начать новую тему Ответить на тему
Статистика раздачи
Размер: 287.04 МБ | Добавлен: 26 июн 2020, 17:14 | Скачали: 0
Сидеров: 0  [0 байт/сек]    Личеров: 0  [0 байт/сек]
Пред. тема | След. тема 

Автор
Сообщение

СообщениеДобавлено: 26 июн 2020, 17:14 

Ответить с цитатой 

kETvECTOR - The Infinite Regress
Жанр: Broken Beat, Electro, Industrial
Год выпуска диска: 2008
Производитель диска: Italy
Аудио кодек: FLAC
Тип рипа: tracks+.cue
Битрейт аудио: lossless
Трэклист:
1 Genetic Archive
2 A.U.M. Dose
3 Spiral Script
4 Struttura
5 Markoff Chaney
6 Ventitré
7 Immanentize The Eschaton
8 Metacognition
9 E-Prime
10 Infinite Regress
Syrup 0.9.9.44, Track.cfg v.0992
Exact Audio Copy V0.99 prebeta 3 from 28. July 2007
EAC extraction logfile from 2. June 2008, 16:40
kETvECTOR / The Infinite Regress
Used drive : TSSTcorpCDDVDW SH-S203B Adapter: 2 ID: 2
Read mode : Secure
Utilize accurate stream : Yes
Defeat audio cache : Yes
Make use of C2 pointers : No
Read offset correction : 6
Overread into Lead-In and Lead-Out : No
Fill up missing offset samples with silence : Yes
Delete leading and trailing silent blocks : No
Null samples used in CRC calculations : Yes
Used interface : Native Win32 interface for Win NT & 2000
Gap handling : Appended to previous track
Used output format : User Defined Encoder
Selected bitrate : 128 kBit/s
Quality : High
Add ID3 tag : No
Command line compressor : C:\Program Files\Exact Audio Copy\Syrup\Syrup.exe
Additional command line options : REACT %o %s %d "%a" "%g" "%t" "%n" "%x" "%y" "%m" "%e" "%f" "%b" %r
TOC of the extracted CD
Track | Start | Length | Start sector | End sector
---------------------------------------------------------
1 | 0:00.00 | 4:23.15 | 0 | 19739
2 | 4:23.15 | 4:03.64 | 19740 | 38028
3 | 8:27.04 | 4:43.19 | 38029 | 59272
4 | 13:10.23 | 5:03.61 | 59273 | 82058
5 | 18:14.09 | 3:13.37 | 82059 | 96570
6 | 21:27.46 | 4:21.28 | 96571 | 116173
7 | 25:48.74 | 3:34.06 | 116174 | 132229
8 | 29:23.05 | 6:09.67 | 132230 | 159971
9 | 35:32.72 | 4:49.52 | 159972 | 181698
10 | 40:22.49 | 4:06.32 | 181699 | 200180
Track 1
Filename C:\DOCUME~1\teh\LOCALS~1\Temp\Syrup\kETvECTOR - The Infinite Regress - 01 - Genetic Archive.wav
Pre-gap length 0:00:02.00
Peak level 95.5 %
Track quality 100.0 %
Test CRC 3CD99118
Copy CRC 3CD99118
Track not present in AccurateRip database
Copy OK
Track 2
Filename C:\DOCUME~1\teh\LOCALS~1\Temp\Syrup\kETvECTOR - The Infinite Regress - 02 - A.U.M. Dose.wav
Pre-gap length 0:00:00.74
Peak level 97.7 %
Track quality 100.0 %
Test CRC 41EF2295
Copy CRC 41EF2295
Track not present in AccurateRip database
Copy OK
Track 3
Filename C:\DOCUME~1\teh\LOCALS~1\Temp\Syrup\kETvECTOR - The Infinite Regress - 03 - Spiral Script.wav
Pre-gap length 0:00:01.73
Peak level 95.5 %
Track quality 99.9 %
Test CRC 6A5972E8
Copy CRC 6A5972E8
Track not present in AccurateRip database
Copy OK
Track 4
Filename C:\DOCUME~1\teh\LOCALS~1\Temp\Syrup\kETvECTOR - The Infinite Regress - 04 - Struttura.wav
Peak level 95.9 %
Track quality 99.9 %
Test CRC BC273BCA
Copy CRC BC273BCA
Track not present in AccurateRip database
Copy OK
Track 5
Filename C:\DOCUME~1\teh\LOCALS~1\Temp\Syrup\kETvECTOR - The Infinite Regress - 05 - Markoff Chaney.wav
Peak level 93.8 %
Track quality 100.0 %
Test CRC 325A9686
Copy CRC 325A9686
Track not present in AccurateRip database
Copy OK
Track 6
Filename C:\DOCUME~1\teh\LOCALS~1\Temp\Syrup\kETvECTOR - The Infinite Regress - 06 - Ventitrй.wav
Pre-gap length 0:00:01.74
Peak level 97.7 %
Track quality 100.0 %
Test CRC AF79904A
Copy CRC AF79904A
Track not present in AccurateRip database
Copy OK
Track 7
Filename C:\DOCUME~1\teh\LOCALS~1\Temp\Syrup\kETvECTOR - The Infinite Regress - 07 - Immanentize The Eschaton.wav
Pre-gap length 0:00:00.70
Peak level 97.7 %
Track quality 100.0 %
Test CRC D985131F
Copy CRC D985131F
Track not present in AccurateRip database
Copy OK
Track 8
Filename C:\DOCUME~1\teh\LOCALS~1\Temp\Syrup\kETvECTOR - The Infinite Regress - 08 - Metacognition.wav
Pre-gap length 0:00:02.76
Peak level 97.7 %
Track quality 100.0 %
Test CRC 36C4B73A
Copy CRC 36C4B73A
Track not present in AccurateRip database
Copy OK
Track 9
Filename C:\DOCUME~1\teh\LOCALS~1\Temp\Syrup\kETvECTOR - The Infinite Regress - 09 - E-Prime.wav
Peak level 95.5 %
Track quality 100.0 %
Test CRC 57954298
Copy CRC 57954298
Track not present in AccurateRip database
Copy OK
Track 10
Filename C:\DOCUME~1\teh\LOCALS~1\Temp\Syrup\kETvECTOR - The Infinite Regress - 10 - Infinite Regress.wav
Peak level 93.0 %
Track quality 100.0 %
Test CRC 1F00CCC6
Copy CRC 1F00CCC6
Track not present in AccurateRip database
Copy OK
None of the tracks are present in the AccurateRip database
No errors occurred
End of status report
Правила, инструкции, FAQ!!!
Торрент  Добавлен [26 июн 2020, 17:14] Скачать торрент Магнет ссылка
Скачать торрент
[ Размер 12.4 КБ / Просмотров 1 ]

Статус
Проверен 
 
Размер  287.04 МБ
Приватный: Нет (DHT включён)
.torrent скачан  0
 


     Отправить личное сообщение
   
Страница 1 из 1
Показать сообщения за:  Поле сортировки  
Начать новую тему Ответить на тему


Сейчас этот форум просматривают: нет зарегистрированных пользователей и гости: 0


Вы не можете начинать темы
Вы не можете отвечать на сообщения
Вы не можете редактировать свои сообщения
Вы не можете удалять свои сообщения
Вы не можете добавлять вложения

Перейти:  
cron