Начать новую тему Ответить на тему
Статистика раздачи
Размер: 262.84 МБ | Добавлен: 26 мар 2019, 20:41 | Скачали: 1
Сидеров: 1  [0 байт/сек]    Личеров: 1  [0 байт/сек]
Пред. тема | След. тема 

Автор
Сообщение

СообщениеДобавлено: 26 мар 2019, 20:41 

Ответить с цитатой 

Ocean Colour Scene / Painting
Жанр: Britpop
Носитель: CD
Страна-производитель диска (релиза): EU
Год издания: 2013
Издатель (лейбл): Cooking Vinyl Limited
Номер по каталогу: COOKCD576
Страна исполнителя (группы): United Kingdom
Аудиокодек: FLAC (*.flac)
Тип рипа: tracks+.cue
Битрейт аудио: lossless
Продолжительность: 00:38:16
Источник (релизер): WEB
Наличие сканов в содержимом раздачи: да
Треклист:
01 - We Don’t Look In the Mirror
02 - Painting
03 - Goodbye Old Town
04 - Doodle Book
05 - If God Made Everyone
06 - Weekend
07 - Professor Perplexity
08 - George’s Tower
09 - I Don’t Want to Leave England
10 - The Winning Side
11 - Mistaken Identity
12 - The Union
13 - The New Torch Song
14 - Here Comes the Dawning Day
Код:
Exact Audio Copy V1.0 beta 3 from 29. August 2011
EAC extraction logfile from 5. February 2013, 12:16
Ocean Colour Scene / Painting
Used drive  : hp      CDDVDW TS-L633R   Adapter: 0  ID: 1
Read mode               : Secure
Utilize accurate stream : Yes
Defeat audio cache      : Yes
Make use of C2 pointers : No
Read offset correction                      : 6
Overread into Lead-In and Lead-Out          : No
Fill up missing offset samples with silence : Yes
Delete leading and trailing silent blocks   : No
Null samples used in CRC calculations       : Yes
Used interface                              : Native Win32 interface for Win NT & 2000
Gap handling                                : Appended to previous track
Used output format              : User Defined Encoder
Selected bitrate                : 1024 kBit/s
Quality                         : High
Add ID3 tag                     : No
Command line compressor         : C:\Program Files (x86)\FLAC\flac.exe
Additional command line options : -8 -V -T "ARTIST=%artist%" -T "TITLE=%title%" -T "ALBUM=%albumtitle%" -T "DATE=%year%" -T "TRACKNUMBER=%tracknr%" -T "GENRE=%genre%" -T "PERFORMER=%albuminterpret%" -T "COMPOSER=%composer%" %haslyrics%--tag-from-file=LYRICS="%lyricsfile%"%haslyrics% -T "ALBUMARTIST=%albumartist%" -T "DISCNUMBER=%cdnumber%" -T "TOTALDISCS=%totalcds%" -T "TOTALTRACKS=%numtracks%" -T "COMMENT=%comment%" %source% -o %dest%
TOC of the extracted CD
     Track |   Start  |  Length  | Start sector | End sector
    ---------------------------------------------------------
        1  |  0:00.00 |  3:09.20 |         0    |    14194
        2  |  3:09.20 |  2:27.42 |     14195    |    25261
        3  |  5:36.62 |  2:24.05 |     25262    |    36066
        4  |  8:00.67 |  2:58.46 |     36067    |    49462
        5  | 10:59.38 |  3:28.02 |     49463    |    65064
        6  | 14:27.40 |  3:16.70 |     65065    |    79834
        7  | 17:44.35 |  3:05.06 |     79835    |    93715
        8  | 20:49.41 |  1:21.07 |     93716    |    99797
        9  | 22:10.48 |  2:51.50 |     99798    |   112672
       10  | 25:02.23 |  2:34.00 |    112673    |   124222
       11  | 27:36.23 |  2:25.03 |    124223    |   135100
       12  | 30:01.26 |  3:04.28 |    135101    |   148928
       13  | 33:05.54 |  3:19.57 |    148929    |   163910
       14  | 36:25.36 |  1:55.33 |    163911    |   172568
Track  1
     Filename C:\Users\Admin\Downloads\Ocean Colour Scene - Painting (2013) FLAC\01 - We Don't Look In The Mirror.wav
     Pre-gap length  0:00:02.00
     Peak level 100.0 %
     Extraction speed 2.0 X
     Track quality 100.0 %
     Test CRC 0D61F5E6
     Copy CRC 0D61F5E6
     Track not present in AccurateRip database
     Copy OK
Track  2
     Filename C:\Users\Admin\Downloads\Ocean Colour Scene - Painting (2013) FLAC\02 - Painting.wav
     Peak level 100.0 %
     Extraction speed 2.1 X
     Track quality 100.0 %
     Test CRC B7D09E1C
     Copy CRC B7D09E1C
     Track not present in AccurateRip database
     Copy OK
Track  3
     Filename C:\Users\Admin\Downloads\Ocean Colour Scene - Painting (2013) FLAC\03 - Goodbye Old Town.wav
     Peak level 100.0 %
     Extraction speed 1.6 X
     Track quality 99.9 %
     Test CRC 34BED918
     Copy CRC 34BED918
     Track not present in AccurateRip database
     Copy OK
Track  4
     Filename C:\Users\Admin\Downloads\Ocean Colour Scene - Painting (2013) FLAC\04 - Doodle Book.wav
     Peak level 100.0 %
     Extraction speed 1.9 X
     Track quality 99.9 %
     Test CRC DCE0C127
     Copy CRC DCE0C127
     Track not present in AccurateRip database
     Copy OK
Track  5
     Filename C:\Users\Admin\Downloads\Ocean Colour Scene - Painting (2013) FLAC\05 - If God Made Everyone.wav
     Peak level 100.0 %
     Extraction speed 2.6 X
     Track quality 100.0 %
     Test CRC A1B9CAE3
     Copy CRC A1B9CAE3
     Track not present in AccurateRip database
     Copy OK
Track  6
     Filename C:\Users\Admin\Downloads\Ocean Colour Scene - Painting (2013) FLAC\06 - Weekend.wav
     Peak level 100.0 %
     Extraction speed 2.8 X
     Track quality 100.0 %
     Test CRC C363E399
     Copy CRC C363E399
     Track not present in AccurateRip database
     Copy OK
Track  7
     Filename C:\Users\Admin\Downloads\Ocean Colour Scene - Painting (2013) FLAC\07 - Professor Perplexity.wav
     Peak level 100.0 %
     Extraction speed 2.9 X
     Track quality 100.0 %
     Test CRC 6DF6E950
     Copy CRC 6DF6E950
     Track not present in AccurateRip database
     Copy OK
Track  8
     Filename C:\Users\Admin\Downloads\Ocean Colour Scene - Painting (2013) FLAC\08 - George's Tower.wav
     Peak level 96.4 %
     Extraction speed 2.4 X
     Track quality 100.0 %
     Test CRC E9703BDE
     Copy CRC E9703BDE
     Track not present in AccurateRip database
     Copy OK
Track  9
     Filename C:\Users\Admin\Downloads\Ocean Colour Scene - Painting (2013) FLAC\09 - I Don't Want To Leave England.wav
     Peak level 100.0 %
     Extraction speed 2.3 X
     Track quality 99.9 %
     Test CRC 22E471E7
     Copy CRC 22E471E7
     Track not present in AccurateRip database
     Copy OK
Track 10
     Filename C:\Users\Admin\Downloads\Ocean Colour Scene - Painting (2013) FLAC\10 - The Winning Side.wav
     Peak level 100.0 %
     Extraction speed 2.3 X
     Track quality 99.9 %
     Test CRC D83C1035
     Copy CRC D83C1035
     Track not present in AccurateRip database
     Copy OK
Track 11
     Filename C:\Users\Admin\Downloads\Ocean Colour Scene - Painting (2013) FLAC\11 - Mistaken Identity.wav
     Peak level 100.0 %
     Extraction speed 3.1 X
     Track quality 100.0 %
     Test CRC 2535A415
     Copy CRC 2535A415
     Track not present in AccurateRip database
     Copy OK
Track 12
     Filename C:\Users\Admin\Downloads\Ocean Colour Scene - Painting (2013) FLAC\12 - The Union.wav
     Peak level 100.0 %
     Extraction speed 3.3 X
     Track quality 100.0 %
     Test CRC 8FE87D97
     Copy CRC 8FE87D97
     Track not present in AccurateRip database
     Copy OK
Track 13
     Filename C:\Users\Admin\Downloads\Ocean Colour Scene - Painting (2013) FLAC\13 - The New Torch Song.wav
     Peak level 100.0 %
     Extraction speed 3.5 X
     Track quality 100.0 %
     Test CRC 4A8531ED
     Copy CRC 4A8531ED
     Track not present in AccurateRip database
     Copy OK
Track 14
     Filename C:\Users\Admin\Downloads\Ocean Colour Scene - Painting (2013) FLAC\14 - Here Comes The Dawning Day.wav
     Peak level 87.2 %
     Extraction speed 3.1 X
     Track quality 100.0 %
     Test CRC 7FE82BCC
     Copy CRC 7FE82BCC
     Track not present in AccurateRip database
     Copy OK
None of the tracks are present in the AccurateRip database
No errors occurred
End of status report
---- CUETools DB Plugin V2.1.3
[CTDB TOCID: 3pX4gZZbDvSnucD9m4j7nHyEi1E-] disk not present in database, Submit result: 3pX4gZZbDvSnucD9m4j7nHyEi1E- has been uploaded
==== Log checksum 3BE619EF5322C4C0BBFE33FB0B63E69FCD4A8AF6C9783916FD3E775E49BAE268 ====
Код:
REM COMMENT "CUETools generated dummy CUE sheet"
FILE "01 - We Don't Look In The Mirror.flac" WAVE
  TRACK 01 AUDIO
    INDEX 01 00:00:00
FILE "02 - Painting.flac" WAVE
  TRACK 02 AUDIO
    INDEX 01 00:00:00
FILE "03 - Goodbye Old Town.flac" WAVE
  TRACK 03 AUDIO
    INDEX 01 00:00:00
FILE "04 - Doodle Book.flac" WAVE
  TRACK 04 AUDIO
    INDEX 01 00:00:00
FILE "05 - If God Made Everyone.flac" WAVE
  TRACK 05 AUDIO
    INDEX 01 00:00:00
FILE "06 - Weekend.flac" WAVE
  TRACK 06 AUDIO
    INDEX 01 00:00:00
FILE "07 - Professor Perplexity.flac" WAVE
  TRACK 07 AUDIO
    INDEX 01 00:00:00
FILE "08 - George's Tower.flac" WAVE
  TRACK 08 AUDIO
    INDEX 01 00:00:00
FILE "09 - I Don't Want To Leave England.flac" WAVE
  TRACK 09 AUDIO
    INDEX 01 00:00:00
FILE "10 - The Winning Side.flac" WAVE
  TRACK 10 AUDIO
    INDEX 01 00:00:00
FILE "11 - Mistaken Identity.flac" WAVE
  TRACK 11 AUDIO
    INDEX 01 00:00:00
FILE "12 - The Union.flac" WAVE
  TRACK 12 AUDIO
    INDEX 01 00:00:00
FILE "13 - The New Torch Song.flac" WAVE
  TRACK 13 AUDIO
    INDEX 01 00:00:00
FILE "14 - Here Comes The Dawning Day.flac" WAVE
  TRACK 14 AUDIO
    INDEX 01 00:00:00
10 studio album by Ocean Colour Scene. A real top quality album with a great collection of songs and sounds - rockers, acoustics, ballads, and some very enjoyable psychedelia added to the mix. The album flows along smoothly from start to finish with excellent musicianship and absolutely sublime vocals throughout. There are the usual Beatle-esque/Lennon-esque moments, which to me is always a big plus. Highly recommended - sheer class.
Steve Cradock - guitars, keyboards, vocals
Simon Fowler - guitar, vocal
Damon Minchella - bass
Oscar Harrison - drums
Правила, инструкции, FAQ!!!
Торрент  Добавлен [26 мар 2019, 20:41] Скачать торрент Магнет ссылка
Скачать торрент
[ Размер 11.86 КБ / Просмотров 10 ]

Статус
Проверен 
 
Размер  262.84 МБ
Приватный: Нет (DHT включён)
.torrent скачан  1
 


     Отправить личное сообщение
   
Страница 1 из 1
Показать сообщения за:  Поле сортировки  
Начать новую тему Ответить на тему


Сейчас этот форум просматривают: нет зарегистрированных пользователей и гости: 0


Вы не можете начинать темы
Вы не можете отвечать на сообщения
Вы не можете редактировать свои сообщения
Вы не можете удалять свои сообщения
Вы не можете добавлять вложения

Перейти:  
cron