Начать новую тему Ответить на тему
Статистика раздачи
Размер: 256.3 МБ | Добавлен: 26 мар 2019, 20:12 | Скачали: 0
Сидеров: 0  [0 байт/сек]    Личеров: 0  [0 байт/сек]
Пред. тема | След. тема 

Автор
Сообщение

СообщениеДобавлено: 26 мар 2019, 20:12 

Ответить с цитатой 

Ocean Colour Scene - One From The Modern
Страна:
Жанр: Britpop
Год выпуска диска: 1999
Аудио кодек: FLAC
Тип рипа: tracks+.cue
Битрейт аудио: lossless
Продолжительность: 44:00
Трэклист:
01. Profit In Peace (4:13)
02. So Low (3:53)
03. I Am The News (4:01)
04. No One At All (2:40)
05. Families (2:54)
06. July (3:33)
07. Jane She Got Excavated (3:10)
08. Emily Chambers (3:43)
09. Soul Driver (3:32)
10. The Waves (6:05)
11. I Won't Get Grazed (2:51)
Доп. информация:
Релиз с waffles.fm, User: anonymous
Код:
REM GENRE Rock
REM DATE 1999
REM DISCID 9D09940B
REM COMMENT "ExactAudioCopy v0.99pb5"
PERFORMER "Ocean Colour Scene"
TITLE "One From The Modern"
FILE "01 Ocean Colour Scene - Profit In Peace.wav" WAVE
  TRACK 01 AUDIO
    TITLE "Profit In Peace"
    PERFORMER "Ocean Colour Scene"
    INDEX 01 00:00:00
FILE "02 Ocean Colour Scene - So Low.wav" WAVE
  TRACK 02 AUDIO
    TITLE "So Low"
    PERFORMER "Ocean Colour Scene"
    INDEX 01 00:00:00
FILE "03 Ocean Colour Scene - I Am The News.wav" WAVE
  TRACK 03 AUDIO
    TITLE "I Am The News"
    PERFORMER "Ocean Colour Scene"
    INDEX 01 00:00:00
  TRACK 04 AUDIO
    TITLE "No One At All"
    PERFORMER "Ocean Colour Scene"
    INDEX 00 04:01:67
FILE "04 Ocean Colour Scene - No One At All.wav" WAVE
    INDEX 01 00:00:00
FILE "05 Ocean Colour Scene - Families.wav" WAVE
  TRACK 05 AUDIO
    TITLE "Families"
    PERFORMER "Ocean Colour Scene"
    INDEX 01 00:00:00
FILE "06 Ocean Colour Scene - July.wav" WAVE
  TRACK 06 AUDIO
    TITLE "July"
    PERFORMER "Ocean Colour Scene"
    INDEX 01 00:00:00
FILE "07 Ocean Colour Scene - Jane She Got Excavated.wav" WAVE
  TRACK 07 AUDIO
    TITLE "Jane She Got Excavated"
    PERFORMER "Ocean Colour Scene"
    INDEX 01 00:00:00
FILE "08 Ocean Colour Scene - Emily Chambers.wav" WAVE
  TRACK 08 AUDIO
    TITLE "Emily Chambers"
    PERFORMER "Ocean Colour Scene"
    INDEX 01 00:00:00
FILE "09 Ocean Colour Scene - Soul Driver.wav" WAVE
  TRACK 09 AUDIO
    TITLE "Soul Driver"
    PERFORMER "Ocean Colour Scene"
    INDEX 01 00:00:00
  TRACK 10 AUDIO
    TITLE "The Waves"
    PERFORMER "Ocean Colour Scene"
    INDEX 00 03:32:65
FILE "10 Ocean Colour Scene - The Waves.wav" WAVE
    INDEX 01 00:00:00
  TRACK 11 AUDIO
    TITLE "I Wonґt Get Grazed"
    PERFORMER "Ocean Colour Scene"
    INDEX 00 06:05:60
FILE "11 Ocean Colour Scene - I Wonґt Get Grazed.wav" WAVE
    INDEX 01 00:00:00
Код:
Exact Audio Copy V0.99 prebeta 5 from 4. May 2009
EAC extraction logfile from 26. June 2009, 13:38
Ocean Colour Scene / One From The Modern
Used drive  : TSSTcorpCDDVDW TS-H653N   Adapter: 2  ID: 1
Read mode               : Secure
Utilize accurate stream : Yes
Defeat audio cache      : Yes
Make use of C2 pointers : No
Read offset correction                      : 6
Overread into Lead-In and Lead-Out          : No
Fill up missing offset samples with silence : Yes
Delete leading and trailing silent blocks   : No
Null samples used in CRC calculations       : Yes
Used interface                              : Native Win32 interface for Win NT & 2000
Gap handling                                : Appended to previous track
Used output format              : User Defined Encoder
Selected bitrate                : 192 kBit/s
Quality                         : High
Add ID3 tag                     : No
Command line compressor         : C:\Program Files\Exact Audio Copy\flac.exe
Additional command line options : -V -8 -T "artist=%a" -T "title=%t" -T "album=%g" -T "date=%y" -T "tracknumber=%n" -T "genre=%m" %s
TOC of the extracted CD
     Track |   Start  |  Length  | Start sector | End sector
    ---------------------------------------------------------
        1  |  0:00.00 |  4:14.27 |         0    |    19076
        2  |  4:14.27 |  3:54.13 |     19077    |    36639
        3  |  8:08.40 |  4:03.10 |     36640    |    54874
        4  | 12:11.50 |  2:40.35 |     54875    |    66909
        5  | 14:52.10 |  2:56.12 |     66910    |    80121
        6  | 17:48.22 |  3:34.00 |     80122    |    96171
        7  | 21:22.22 |  3:10.73 |     96172    |   110494
        8  | 24:33.20 |  3:44.02 |    110495    |   127296
        9  | 28:17.22 |  3:35.35 |    127297    |   143456
       10  | 31:52.57 |  6:08.20 |    143457    |   171076
       11  | 38:01.02 |  2:51.68 |    171077    |   183969
Track  1
     Filename C:\Users\Oliver\Desktop\EACrips\01 Ocean Colour Scene - Profit In Peace.wav
     Pre-gap length  0:00:02.00
     Peak level 100.0 %
     Track quality 99.9 %
     Test CRC E4E29519
     Copy CRC E4E29519
     Accurately ripped (confidence 12)  [35BF7270]
     Copy OK
Track  2
     Filename C:\Users\Oliver\Desktop\EACrips\02 Ocean Colour Scene - So Low.wav
     Peak level 100.0 %
     Track quality 100.0 %
     Test CRC 7A2E25DB
     Copy CRC 7A2E25DB
     Accurately ripped (confidence 12)  [2A3F3A7E]
     Copy OK
Track  3
     Filename C:\Users\Oliver\Desktop\EACrips\03 Ocean Colour Scene - I Am The News.wav
     Peak level 96.9 %
     Track quality 100.0 %
     Test CRC 4AB91BCA
     Copy CRC 4AB91BCA
     Accurately ripped (confidence 12)  [4D6BBBCD]
     Copy OK
Track  4
     Filename C:\Users\Oliver\Desktop\EACrips\04 Ocean Colour Scene - No One At All.wav
     Pre-gap length  0:00:01.18
     Peak level 100.0 %
     Track quality 100.0 %
     Test CRC D71198B3
     Copy CRC D71198B3
     Accurately ripped (confidence 11)  [B2EED1E3]
     Copy OK
Track  5
     Filename C:\Users\Oliver\Desktop\EACrips\05 Ocean Colour Scene - Families.wav
     Peak level 100.0 %
     Track quality 100.0 %
     Test CRC 4E040323
     Copy CRC 4E040323
     Accurately ripped (confidence 12)  [00197054]
     Copy OK
Track  6
     Filename C:\Users\Oliver\Desktop\EACrips\06 Ocean Colour Scene - July.wav
     Peak level 99.9 %
     Track quality 100.0 %
     Test CRC C8CA6AA9
     Copy CRC C8CA6AA9
     Accurately ripped (confidence 12)  [146CD441]
     Copy OK
Track  7
     Filename C:\Users\Oliver\Desktop\EACrips\07 Ocean Colour Scene - Jane She Got Excavated.wav
     Peak level 99.9 %
     Track quality 100.0 %
     Test CRC E2246FC3
     Copy CRC E2246FC3
     Accurately ripped (confidence 12)  [E41CC02E]
     Copy OK
Track  8
     Filename C:\Users\Oliver\Desktop\EACrips\08 Ocean Colour Scene - Emily Chambers.wav
     Peak level 100.0 %
     Track quality 100.0 %
     Test CRC 0CE46731
     Copy CRC 0CE46731
     Accurately ripped (confidence 12)  [75793C89]
     Copy OK
Track  9
     Filename C:\Users\Oliver\Desktop\EACrips\09 Ocean Colour Scene - Soul Driver.wav
     Peak level 99.9 %
     Track quality 100.0 %
     Test CRC EC650382
     Copy CRC EC650382
     Accurately ripped (confidence 12)  [09932355]
     Copy OK
Track 10
     Filename C:\Users\Oliver\Desktop\EACrips\10 Ocean Colour Scene - The Waves.wav
     Pre-gap length  0:00:02.45
     Peak level 90.9 %
     Track quality 99.9 %
     Test CRC D147A5FF
     Copy CRC D147A5FF
     Accurately ripped (confidence 12)  [58A28453]
     Copy OK
Track 11
     Filename C:\Users\Oliver\Desktop\EACrips\11 Ocean Colour Scene - I Wonґt Get Grazed.wav
     Pre-gap length  0:00:02.35
     Peak level 99.9 %
     Track quality 100.0 %
     Test CRC 686DA1B4
     Copy CRC 686DA1B4
     Accurately ripped (confidence 12)  [A18F9831]
     Copy OK
All tracks accurately ripped
No errors occurred
End of status report
Не забывайте голосовать за раздачу!!!
Правила, инструкции, FAQ!!!
Торрент  Добавлен [26 мар 2019, 20:12] Скачать торрент Магнет ссылка
Скачать торрент
[ Размер 11.44 КБ / Просмотров 6 ]

Статус
Проверен 
 
Размер  256.3 МБ
Приватный: Нет (DHT включён)
.torrent скачан  0
 


     Отправить личное сообщение
   
Страница 1 из 1
Показать сообщения за:  Поле сортировки  
Начать новую тему Ответить на тему


Сейчас этот форум просматривают: нет зарегистрированных пользователей и гости: 1


Вы не можете начинать темы
Вы не можете отвечать на сообщения
Вы не можете редактировать свои сообщения
Вы не можете удалять свои сообщения
Вы не можете добавлять вложения

Перейти:  
cron