Начать новую тему Ответить на тему
Статистика раздачи
Размер: 299.13 МБ | Добавлен: 26 мар 2019, 20:41 | Скачали: 0
Сидеров: 0  [0 байт/сек]    Личеров: 0  [0 байт/сек]
Пред. тема | След. тема 

Автор
Сообщение

СообщениеДобавлено: 26 мар 2019, 20:41 

Ответить с цитатой 

Ocean Colour Scene - Ocean Colour Scene
Жанр: Britpop
Год выпуска диска: 1992
Производитель диска: UK
Аудио кодек: FLAC
Тип рипа: tracks+.cue
Битрейт аудио: lossless
Продолжительность: 47:15
Трэклист:
1. Talk On
2. How About You
3. Giving It All Away
4. Justine
5. Do Yourself A Favour
6. Third Shade Of Green
7. Sway
8. Penny Pinching Rainy Heaven Days
9. One Of Those Days
10. Is She Coming Home
11. Blue Deep Ocean
12. Reprise
EAC extraction logfile from 15. September 2006, 6:52 for CD
Ocean Colour Scene / Ocean Colour Scene
Used drive : _NEC DVD_RW ND-3551A Adapter: 1 ID: 1
Read mode : Secure with NO C2, accurate stream, disable cache
Read offset correction : 48
Overread into Lead-In and Lead-Out : No
Used output format : C:\Programmer\FLAC\flac.exe (User Defined Encoder)
192 kBit/s
Additional command line options : -V -8 -T "artist=%a" -T "title=%t" -T "album=%g" -T "date=%y" -T "tracknumber=%n" -T "genre=%m" %s
Other options :
Fill up missing offset samples with silence : Yes
Delete leading and trailing silent blocks : No
Installed external ASPI interface
Track 1
Filename C:\EAC_Lab\01-Ocean Colour Scene-Talk On.wav
Pre-gap length 0:00:02.44
Peak level 97.3 %
Track quality 100.0 %
Test CRC 6EF5ED12
Copy CRC 6EF5ED12
Copy OK
Track 2
Filename C:\EAC_Lab\02-Ocean Colour Scene-How About You.wav
Pre-gap length 0:00:01.17
Peak level 97.3 %
Track quality 100.0 %
Test CRC DF7A0116
Copy CRC DF7A0116
Copy OK
Track 3
Filename C:\EAC_Lab\03-Ocean Colour Scene-Giving It All Away.wav
Peak level 97.3 %
Track quality 100.0 %
Test CRC 78FB7FD7
Copy CRC 78FB7FD7
Copy OK
Track 4
Filename C:\EAC_Lab\04-Ocean Colour Scene-Justine.wav
Pre-gap length 0:00:02.44
Peak level 53.0 %
Track quality 100.0 %
Test CRC 5919321E
Copy CRC 5919321E
Copy OK
Track 5
Filename C:\EAC_Lab\05-Ocean Colour Scene-Do Yourself A Favour.wav
Peak level 97.3 %
Track quality 100.0 %
Test CRC C3512CD6
Copy CRC C3512CD6
Copy OK
Track 6
Filename C:\EAC_Lab\06-Ocean Colour Scene-Third Shade Of Green.wav
Peak level 97.3 %
Track quality 100.0 %
Test CRC BD8C062E
Copy CRC BD8C062E
Copy OK
Track 7
Filename C:\EAC_Lab\07-Ocean Colour Scene-Sway.wav
Peak level 97.3 %
Track quality 99.9 %
Test CRC 20B6621C
Copy CRC 20B6621C
Copy OK
Track 8
Filename C:\EAC_Lab\08-Ocean Colour Scene-Penny Pinching Rainy Heaven Days.wav
Peak level 97.3 %
Track quality 100.0 %
Test CRC 1DBBC51D
Copy CRC 1DBBC51D
Copy OK
Track 9
Filename C:\EAC_Lab\09-Ocean Colour Scene-One Of Those Days.wav
Pre-gap length 0:00:00.46
Peak level 97.3 %
Track quality 100.0 %
Test CRC 6BDB1B12
Copy CRC 6BDB1B12
Copy OK
Track 10
Filename C:\EAC_Lab\10-Ocean Colour Scene-Is She Coming Home.wav
Pre-gap length 0:00:01.93
Peak level 97.3 %
Track quality 100.0 %
Test CRC 881C43E2
Copy CRC 881C43E2
Copy OK
Track 11
Filename C:\EAC_Lab\11-Ocean Colour Scene-Blue Deep Ocean.wav
Peak level 97.3 %
Track quality 100.0 %
Test CRC 217CD2DB
Copy CRC 217CD2DB
Copy OK
Track 12
Filename C:\EAC_Lab\12-Ocean Colour Scene-Reprise.wav
Pre-gap length 0:00:01.20
Peak level 97.2 %
Track quality 100.0 %
Test CRC B4BAE442
Copy CRC B4BAE442
Copy OK
No errors occured
End of status report
AUDIOCHECKER v2.0 beta (build 457) - by Dester - opdester@freemail.hu
~~~~~~~~~~~~~~~~~~~~~~~~~~~~~~~~~~
Started at: четверг, 19. 03. 2009. - 21:09.25
12 files found
01 -===- D:\Torrents\Media\Ocean Colour Scene - Ocean Colour Scene 1992\01-Ocean Colour Scene-Talk On.flac
Extracted successfully
Conclusion: this track is CDDA with probability 100%
Tempfile successfully deleted.
02 -===- D:\Torrents\Media\Ocean Colour Scene - Ocean Colour Scene 1992\02-Ocean Colour Scene-How About You.flac
Extracted successfully
Conclusion: this track is CDDA with probability 100%
Tempfile successfully deleted.
03 -===- D:\Torrents\Media\Ocean Colour Scene - Ocean Colour Scene 1992\03-Ocean Colour Scene-Giving It All Away.flac
Extracted successfully
Conclusion: this track is CDDA with probability 100%
Tempfile successfully deleted.
04 -===- D:\Torrents\Media\Ocean Colour Scene - Ocean Colour Scene 1992\04-Ocean Colour Scene-Justine.flac
Extracted successfully
Conclusion: this track is CDDA with probability 100%
Tempfile successfully deleted.
05 -===- D:\Torrents\Media\Ocean Colour Scene - Ocean Colour Scene 1992\05-Ocean Colour Scene-Do Yourself A Favour.flac
Extracted successfully
Conclusion: this track is CDDA with probability 100%
Tempfile successfully deleted.
06 -===- D:\Torrents\Media\Ocean Colour Scene - Ocean Colour Scene 1992\06-Ocean Colour Scene-Third Shade Of Green.flac
Extracted successfully
Conclusion: this track is CDDA with probability 100%
Tempfile successfully deleted.
07 -===- D:\Torrents\Media\Ocean Colour Scene - Ocean Colour Scene 1992\07-Ocean Colour Scene-Sway.flac
Extracted successfully
Conclusion: this track is CDDA with probability 99%
Tempfile successfully deleted.
08 -===- D:\Torrents\Media\Ocean Colour Scene - Ocean Colour Scene 1992\08-Ocean Colour Scene-Penny Pinching Rainy Heaven Days.flac
Extracted successfully
Conclusion: this track is CDDA with probability 100%
Tempfile successfully deleted.
09 -===- D:\Torrents\Media\Ocean Colour Scene - Ocean Colour Scene 1992\09-Ocean Colour Scene-One Of Those Days.flac
Extracted successfully
Conclusion: this track is CDDA with probability 100%
Tempfile successfully deleted.
10 -===- D:\Torrents\Media\Ocean Colour Scene - Ocean Colour Scene 1992\10-Ocean Colour Scene-Is She Coming Home.flac
Extracted successfully
Conclusion: this track is CDDA with probability 100%
Tempfile successfully deleted.
11 -===- D:\Torrents\Media\Ocean Colour Scene - Ocean Colour Scene 1992\11-Ocean Colour Scene-Blue Deep Ocean.flac
Extracted successfully
Conclusion: this track is CDDA with probability 100%
Tempfile successfully deleted.
12 -===- D:\Torrents\Media\Ocean Colour Scene - Ocean Colour Scene 1992\12-Ocean Colour Scene-Reprise.flac
Extracted successfully
Conclusion: this track is CDDA with probability 100%
Tempfile successfully deleted.
Finished at: четверг, 19. 03. 2009. - 21:14.28 (operation time: 0:05.02)
-----------------------------------------------------------
Started at: четверг, 19. 03. 2009. - 21:22.16
12 files found
01 -===- D:\Torrents\Media\Ocean Colour Scene - Ocean Colour Scene 1992\01-Ocean Colour Scene-Talk On.flac
Extracted successfully
Process aborted by user!
Finished at: четверг, 19. 03. 2009. - 21:22.38 (operation time: 0:00.22)
Доп. информация: утянуто из нета. автор рипа frika
инфа
http://en.wikipedia.org/wiki/Ocean_Colour_Scene http://www.lastfm.ru/music/Ocean+Colour+Scene/+wiki http://hardrockcafe.narod.ru/o/oceancolourscene.htm
Правила, инструкции, FAQ!!!
Торрент  Добавлен [26 мар 2019, 20:41] Скачать торрент Магнет ссылка
Скачать торрент
[ Размер 25.64 КБ / Просмотров 7 ]

Статус
Проверен 
 
Размер  299.13 МБ
Приватный: Нет (DHT включён)
.torrent скачан  0
 


     Отправить личное сообщение
   
Страница 1 из 1
Показать сообщения за:  Поле сортировки  
Начать новую тему Ответить на тему


Сейчас этот форум просматривают: нет зарегистрированных пользователей и гости: 0


Вы не можете начинать темы
Вы не можете отвечать на сообщения
Вы не можете редактировать свои сообщения
Вы не можете удалять свои сообщения
Вы не можете добавлять вложения

Перейти:  
cron