Начать новую тему Ответить на тему
Статистика раздачи
Размер: 322.01 МБ | Добавлен: 26 мар 2019, 20:41 | Скачали: 0
Сидеров: 1  [0 байт/сек]    Личеров: 1  [0 байт/сек]
Пред. тема | След. тема 

Автор
Сообщение

СообщениеДобавлено: 26 мар 2019, 20:41 

Ответить с цитатой 

Ocean Colour Scene / North Atlantic Drift
Жанр: Britpop
Страна-производитель диска: United Kingdom
Год издания диска: 2003
Издатель (лейбл): Sanctuary Records Group
Номер по каталогу: SANDP160
Страна: United Kingdom
Аудиокодек: FLAC (*.flac)
Тип рипа: image+.cue
Битрейт аудио: lossless
Продолжительность: 00:44:37
Источник (релизер): CD из личной коллекции
Наличие сканов в содержимом раздачи: да
Треклист:
01 - I Just Need Myself
02 - Oh Collector
03 - North Atlantic Drift
04 - Golden Gate Bridge
05 - Make The Deal
06 - For Every Corner
07 - On My Way
08 - Second Hand Car
09 - She’s Been Writing
10 - The Song Goes On
11 - When Evil Comes
Код:
Exact Audio Copy V1.0 beta 2 from 29. April 2011
Отчёт EAC об извлечении, выполненном 5. августа 2011, 12:08
Ocean Colour Scene / North Atlantic drift
Дисковод: HL-DT-STDVDRAM GH22LS50   Adapter: 2  ID: 1
Режим чтения                 : Достоверность
Использование точного потока : Да
Отключение кэша аудио        : Да
Использование указателей C2  : Нет
Коррекция смещения при чтении                     : 667
Способность читать области Lead-in и Lead-out     : Нет
Заполнение пропущенных сэмплов тишиной            : Да
Удаление блоков с тишиной в начале и конце        : Нет
При вычислениях CRC использовались нулевые сэмплы : Да
Интерфейс                                         : Установленный внешний ASPI-интерфейс
Выходной формат          : Пользовательский кодировщик
Выбранный битрейт        : 128 kBit/s
Качество                 : Высокий
Добавление ID3-тега      : Нет
Утилита сжатия           : C:\Program Files\FLAC\flac.exe
Дополнительные параметры : -V -8 -T "Date=%year%" -T "Genre=%genre%" %source%
TOC извлечённого CD
     Трек |   Старт  | Длительность | Начальный сектор | Конечный сектор
    ---------------------------------------------------------------------
       1  |  0:00.00 |    3:24.54   |           0      |      15353
       2  |  3:24.54 |    3:53.45   |       15354      |      32873
       3  |  7:18.24 |    3:09.32   |       32874      |      47080
       4  | 10:27.56 |    4:09.41   |       47081      |      65796
       5  | 14:37.22 |    3:58.49   |       65797      |      83695
       6  | 18:35.71 |    3:47.46   |       83696      |     100766
       7  | 22:23.42 |    3:26.71   |      100767      |     116287
       8  | 25:50.38 |    2:56.54   |      116288      |     129541
       9  | 28:47.17 |    4:12.65   |      129542      |     148506
      10  | 33:00.07 |    5:21.37   |      148507      |     172618
      11  | 38:21.44 |    6:22.73   |      172619      |     201341
Характеристики диапазона извлечения и сообщения об ошибках
Выбранный диапазон
     Имя файла I:\_music\003 BRITPOP\Ocean Colour Scene\2003 - North Atlantic Drift (flac)\Ocean Colour Scene - North Atlantic drift.wav
     Пиковый уровень 100.0 %
     Скорость извлечения 1.9 X
     Качество диапазона 99.9 %
     CRC теста 6520B9D0
     CRC копии 6520B9D0
     Копирование... OK
Ошибок не произошло
Конец отчёта
==== Контрольная сумма отчёта C896450E77943B853317141E7EDA30B101D2D7CE9E2EEC0AB1EEBF9B03E0F850 ====
Код:
REM GENRE Britpop
REM DATE 2003
REM DISCID 8E0A7C0B
REM COMMENT "ExactAudioCopy v1.0b2"
PERFORMER "Ocean Colour Scene"
TITLE "North Atlantic drift"
FILE "Ocean Colour Scene - North Atlantic drift.flac" WAVE
  TRACK 01 AUDIO
    TITLE "I Just Need Myself"
    PERFORMER "Ocean Colour Scene"
    ISRC GBAJE0300371
    INDEX 01 00:00:00
  TRACK 02 AUDIO
    TITLE "Oh Collector"
    PERFORMER "Ocean Colour Scene"
    ISRC GBAJE0300372
    INDEX 00 03:24:34
    INDEX 01 03:24:54
  TRACK 03 AUDIO
    TITLE "North Atlantic Drift"
    PERFORMER "Ocean Colour Scene"
    ISRC GBAJE0300373
    INDEX 01 07:18:24
  TRACK 04 AUDIO
    TITLE "Golden Gate Bridge"
    PERFORMER "Ocean Colour Scene"
    ISRC GBAJE0300374
    INDEX 00 10:25:23
    INDEX 01 10:27:56
  TRACK 05 AUDIO
    TITLE "Make The Deal"
    PERFORMER "Ocean Colour Scene"
    ISRC GBAJE0300375
    INDEX 00 14:37:20
    INDEX 01 14:37:22
  TRACK 06 AUDIO
    TITLE "For Every Corner"
    PERFORMER "Ocean Colour Scene"
    ISRC GBAJE0300376
    INDEX 01 18:35:71
  TRACK 07 AUDIO
    TITLE "On My Way"
    PERFORMER "Ocean Colour Scene"
    ISRC GBAJE0300377
    INDEX 00 22:22:53
    INDEX 01 22:23:42
  TRACK 08 AUDIO
    TITLE "Second Hand Car"
    PERFORMER "Ocean Colour Scene"
    ISRC GBAJE0300378
    INDEX 00 25:49:55
    INDEX 01 25:50:38
  TRACK 09 AUDIO
    TITLE "She's Been Writing"
    PERFORMER "Ocean Colour Scene"
    ISRC GBAJE0300379
    INDEX 00 28:46:32
    INDEX 01 28:47:17
  TRACK 10 AUDIO
    TITLE "The Song Goes On"
    PERFORMER "Ocean Colour Scene"
    ISRC GBAJE0300380
    INDEX 00 32:59:32
    INDEX 01 33:00:07
  TRACK 11 AUDIO
    TITLE "When Evil Comes"
    PERFORMER "Ocean Colour Scene"
    ISRC GBAJE0300381
    INDEX 00 38:20:21
    INDEX 01 38:21:44
Код:
[img]http://i18.fastpic.ru/big/2011/0805/88/13b125e800c35369326c1376e54da388.png[/img]

North Atlantic Drift is a 2003 album by Ocean Colour Scene
The title track is political commentary on American cultural imperialism and its support by the UK government, particularly the then impending US-led invasion of Iraq, which was opposed by the majority of the British public. (OCS had shown their anti-war tendencies with the previous protest song Profit in Peace and associated with Paul Weller). "Meanwhile Rome burns" appears to be a reference to the September 11 Attacks, analogy with the Sacking of Rome, "Between the Euphrates and the other river now the home of the Devil and the liar" is a reference to Iraq and US President George W. Bush and British Prime Minister Tony Blair, respectively.
The first track, I Just Need Myself was played by Virgin Radio and reached #13 in the charts, though the other two singles did less well but still charted inside the top 40. The folky Second Hand Car was released as a single in Germany and Holland. She's Been Writing is dedicated to Sandy Denny, one of Fowler's favourite bands being Fairport Convention.
The U.S. version was released on August 19, 2003, and contained four bonus tracks, all of which were b-sides to the U.K. single releases of "I Just Need Myself."
It was the last album released with the original line up after Damon Minchella left the band in late 2003.
Simon Fowler - lead vocal and acoustic guitar
Steve Cradock - guitar
Damon Minchella - bass
Oscar Harrison - drums
Правила, инструкции, FAQ!!!
Торрент  Добавлен [26 мар 2019, 20:41] Скачать торрент Магнет ссылка
Скачать торрент
[ Размер 13.66 КБ / Просмотров 5 ]

Статус
Проверен 
 
Размер  322.01 МБ
Приватный: Нет (DHT включён)
.torrent скачан  0
 


     Отправить личное сообщение
   
Страница 1 из 1
Показать сообщения за:  Поле сортировки  
Начать новую тему Ответить на тему


Сейчас этот форум просматривают: нет зарегистрированных пользователей и гости: 0


Вы не можете начинать темы
Вы не можете отвечать на сообщения
Вы не можете редактировать свои сообщения
Вы не можете удалять свои сообщения
Вы не можете добавлять вложения

Перейти:  
cron