Начать новую тему Ответить на тему
Статистика раздачи
Размер: 173.14 МБ | Добавлен: 26 мар 2019, 20:14 | Скачали: 0
Сидеров: 0  [0 байт/сек]    Личеров: 0  [0 байт/сек]
Пред. тема | След. тема 

Автор
Сообщение

СообщениеДобавлено: 26 мар 2019, 20:14 

Ответить с цитатой 

Oasis - Shakermaker [Maxi Single]
Жанр: britpop
Страна-производитель диска: UK
Год издания диска: 1995
Издатель (лейбл): Helter Skelter
Номер по каталогу: HES 661377 2
Страна: UK
Аудиокодек: FLAC (*.flac)
Тип рипа: tracks+.cue
Битрейт аудио: lossless
Продолжительность: 00:25:16
Источник (релизер): CD
Наличие сканов в содержимом раздачи: да
Треклист:
01. Shakermaker
02. D'Yer Wanna Be A SpaceMan?
03. Alive (8 Track Demo)
04. Bring It On Down (Live)
05. I Will Believe (Live)
06. Cloudburst
Код:
Exact Audio Copy V1.0 beta 3 from 29. August 2011
Отчёт EAC об извлечении, выполненном 5. ноября 2011, 0:59
Oasis / Shakermaker
Дисковод: Optiarc DVD RW AD-5240S   Adapter: 3  ID: 1
Режим чтения                 : Достоверность
Использование точного потока : Да
Отключение кэша аудио        : Да
Использование указателей C2  : Нет
Коррекция смещения при чтении                     : 48
Способность читать области Lead-in и Lead-out     : Нет
Заполнение пропущенных сэмплов тишиной            : Да
Удаление блоков с тишиной в начале и конце        : Нет
При вычислениях CRC использовались нулевые сэмплы : Да
Интерфейс                                         : Встроенный Win32-интерфейс для Win NT/2000
Обработка зазоров                                 : Добавлено к предыдущему треку
Выходной формат          : Пользовательский кодировщик
Выбранный битрейт        : 768 kBit/s
Качество                 : Высокий
Добавление ID3-тега      : Нет
Утилита сжатия           : C:\Program Files\Exact Audio Copy\FLAC\FLAC.EXE
Дополнительные параметры : -6 -V -T "ARTIST=%artist%" -T "TITLE=%title%" -T "ALBUM=%albumtitle%" -T "DATE=%year%" -T "TRACKNUMBER=%tracknr%" -T "GENRE=%genre%" -T "COMMENT=%comment%" -T "BAND=%albuminterpret%" -T "ALBUMARTIST=%albuminterpret%" -T "COMPOSER=%composer%" %haslyrics%--tag-from-file=LYRICS="%lyricsfile%"%haslyrics% -T "DISCNUMBER=%cdnumber%" -T "TOTALDISCS=%totalcds%" -T "TOTALTRACKS=%numtracks%" %hascover%--picture="%coverfile%"%hascover% %source% -o %dest%
TOC извлечённого CD
     Трек |   Старт  | Длительность | Начальный сектор | Конечный сектор
    ---------------------------------------------------------------------
       1  |  0:00.00 |    5:11.12   |           0      |      23336
       2  |  5:11.12 |    2:41.35   |       23337      |      35446
       3  |  7:52.47 |    3:57.00   |       35447      |      53221
       4  | 11:49.47 |    4:18.40   |       53222      |      72611
       5  | 16:08.12 |    3:48.10   |       72612      |      89721
       6  | 19:56.22 |    5:19.58   |       89722      |     113704
Трек  1
     Имя файла L:\Новая папка\01 Shakermaker.wav
     Длина предзазора  0:00:02.00
     Пиковый уровень 78.7 %
     Скорость извлечения 2.4 X
     Качество трека 100.0 %
     CRC теста 1A89DFFE
     CRC копии 1A89DFFE
     Точное извлечение (достоверность 6)  [E3B3AC3E]  (AR v1)
     Копирование... OK
Трек  2
     Имя файла L:\Новая папка\02 D'Yer Wanna Be A SpaceMan.wav
     Длина предзазора  0:00:02.02
     Пиковый уровень 72.9 %
     Скорость извлечения 2.4 X
     Качество трека 100.0 %
     CRC теста 1BFD9D41
     CRC копии 1BFD9D41
     Точное извлечение (достоверность 6)  [CBF2F5AA]  (AR v1)
     Копирование... OK
Трек  3
     Имя файла L:\Новая папка\03 Alive (8 Track Demo).wav
     Пиковый уровень 99.7 %
     Скорость извлечения 2.8 X
     Качество трека 100.0 %
     CRC теста 4B9E203B
     CRC копии 4B9E203B
     Точное извлечение (достоверность 6)  [F9ECBA8D]  (AR v1)
     Копирование... OK
Трек  4
     Имя файла L:\Новая папка\04 Bring It On Down (Live).wav
     Длина предзазора  0:00:01.37
     Пиковый уровень 99.6 %
     Скорость извлечения 3.0 X
     Качество трека 100.0 %
     CRC теста 781DFA17
     CRC копии 781DFA17
     Точное извлечение (достоверность 6)  [561C71E5]  (AR v1)
     Копирование... OK
Трек  5
     Имя файла L:\Новая папка\05 I Will Believe (Live).wav
     Длина предзазора  0:00:01.62
     Пиковый уровень 97.8 %
     Скорость извлечения 3.2 X
     Качество трека 100.0 %
     CRC теста 4E2FA54B
     CRC копии 4E2FA54B
     Точное извлечение (достоверность 6)  [B41E6483]  (AR v1)
     Копирование... OK
Трек  6
     Имя файла L:\Новая папка\06 Cloudburst.wav
     Длина предзазора  0:00:01.22
     Пиковый уровень 86.9 %
     Скорость извлечения 3.5 X
     Качество трека 100.0 %
     CRC теста 64656D05
     CRC копии 64656D05
     Точное извлечение (достоверность 5)  [C2255477]  (AR v1)
     Копирование... OK
Все треки извлечены точно
Ошибок не произошло
Конец отчёта
==== Контрольная сумма отчёта FF83E6ECF6F39A621579586D00507582F700C33A7761705280177FDF09001071 ====
Код:
REM GENRE Rock
REM DISCID 4405EC06
REM COMMENT "ExactAudioCopy v1.0b3"
CATALOG 5099766137728
PERFORMER "Oasis"
TITLE "Shakermaker"
FILE "01 Shakermaker.wav" WAVE
  TRACK 01 AUDIO
    TITLE "Shakermaker"
    PERFORMER "Oasis"
    INDEX 01 00:00:00
  TRACK 02 AUDIO
    TITLE "D'Yer Wanna Be A SpaceMan?"
    PERFORMER "Oasis"
    INDEX 00 05:09:10
FILE "02 D'Yer Wanna Be A SpaceMan.wav" WAVE
    INDEX 01 00:00:00
FILE "03 Alive (8 Track Demo).wav" WAVE
  TRACK 03 AUDIO
    TITLE "Alive (8 Track Demo)"
    PERFORMER "Oasis"
    INDEX 01 00:00:00
  TRACK 04 AUDIO
    TITLE "Bring It On Down (Live)"
    PERFORMER "Oasis"
    INDEX 00 03:55:38
FILE "04 Bring It On Down (Live).wav" WAVE
    INDEX 01 00:00:00
  TRACK 05 AUDIO
    TITLE "I Will Believe (Live)"
    PERFORMER "Oasis"
    INDEX 00 04:16:53
FILE "05 I Will Believe (Live).wav" WAVE
    INDEX 01 00:00:00
  TRACK 06 AUDIO
    TITLE "Cloudburst"
    PERFORMER "Oasis"
    INDEX 00 03:46:63
FILE "06 Cloudburst.wav" WAVE
    INDEX 01 00:00:00
Правила, инструкции, FAQ!!!
Торрент  Добавлен [26 мар 2019, 20:14] Скачать торрент Магнет ссылка
Скачать торрент
[ Размер 28.64 КБ / Просмотров 0 ]

Статус
Проверен 
 
Размер  173.14 МБ
Приватный: Нет (DHT включён)
.torrent скачан  0
 


     Отправить личное сообщение
   
Страница 1 из 1
Показать сообщения за:  Поле сортировки  
Начать новую тему Ответить на тему


Сейчас этот форум просматривают: нет зарегистрированных пользователей и гости: 0


Вы не можете начинать темы
Вы не можете отвечать на сообщения
Вы не можете редактировать свои сообщения
Вы не можете удалять свои сообщения
Вы не можете добавлять вложения

Перейти:  
cron