Начать новую тему Ответить на тему
Статистика раздачи
Размер: 1.51 ГБ | Добавлен: 28 апр 2020, 19:52 | Скачали: 0
Сидеров: 0  [0 байт/сек]    Личеров: 0  [0 байт/сек]
Пред. тема | След. тема 

Автор
Сообщение

СообщениеДобавлено: 28 апр 2020, 19:52 

Ответить с цитатой 

Oasis - Be Here Now (Remastered) RKIDCD85XP (UK Promo) 3CD
Жанр: Britpop
Носитель: 3CD, Promo
Страна-производитель диска (релиза): UK
Год оригинального издания: 1997
Год переиздания:2016
Издатель (лейбл): Big Brother
Номер по каталогу: RKIDCD85XP
Страна исполнителя (группы): UK
Аудиокодек: FLAC (*.flac)
Тип рипа: image+.cue
Продолжительность: 71:35 + 76:48 + 70:35
Источник: собственный рип
Наличие сканов в содержимом раздачи: да
Треклист:
1.01. D'You Know What I Mean? 7:43
1.02. My Big Mouth 5:11
1.03. Magic Pie 7:10
1.04. Stand By Me 5:56
1.05. I Hope, I Think, I Know 4:22
1.06. The Girl In The Dirty Shirt 5:50
1.07. Fade In-Out 6:51
1.08. Don't Go Away 4:49
1.09. Be Here Now 5:13
1.10. All Around The World 9:19
1.11. It's Gettin' Better (Man!!) 7:03
1.12. All Around The World (Reprise) 2:07
Код:
Exact Audio Copy V1.3 from 2. September 2016
EAC extraction logfile from 29. March 2020, 22:50
Oasis / Be Here Now RKIDCD85XP (UK Promo) (CD1 Remastered Album)
Used drive  : PIONEER DVD-RW  DVR-218L   Adapter: 1  ID: 0
Read mode               : Secure
Utilize accurate stream : Yes
Defeat audio cache      : Yes
Make use of C2 pointers : No
Read offset correction                      : 6
Overread into Lead-In and Lead-Out          : No
Fill up missing offset samples with silence : Yes
Delete leading and trailing silent blocks   : No
Null samples used in CRC calculations       : Yes
Used interface                              : Native Win32 interface for Win NT & 2000
Used output format              : User Defined Encoder
Selected bitrate                : 320 kBit/s
Quality                         : High
Add ID3 tag                     : No
Command line compressor         : C:\Program Files (x86)\Exact Audio Copy\Flac\flac.exe
Additional command line options : -V -8 -T "Date=%year%" -T "Genre=%genre%" %source%
TOC of the extracted CD
     Track |   Start  |  Length  | Start sector | End sector
    ---------------------------------------------------------
        1  |  0:00.00 |  7:43.16 |         0    |    34740
        2  |  7:43.16 |  5:11.25 |     34741    |    58090
        3  | 12:54.41 |  7:10.28 |     58091    |    90368
        4  | 20:04.69 |  5:55.65 |     90369    |   117058
        5  | 26:00.59 |  4:22.30 |    117059    |   136738
        6  | 30:23.14 |  5:49.48 |    136739    |   162961
        7  | 36:12.62 |  6:51.27 |    162962    |   193813
        8  | 43:04.14 |  4:48.50 |    193814    |   215463
        9  | 47:52.64 |  5:12.68 |    215464    |   238931
       10  | 53:05.57 |  9:19.15 |    238932    |   280871
       11  | 62:24.72 |  7:03.28 |    280872    |   312624
       12  | 69:28.25 |  2:06.64 |    312625    |   322138
Range status and errors
Selected range
     Filename G:\Music\Oasis\2016 - Be Here Now RKIDCD85XP (UK Promo)\CD1\2016 - Be Here Now RKIDCD85XP (CD1 Remastered Album).wav
     Peak level 100.0 %
     Extraction speed 2.0 X
     Range quality 100.0 %
     Test CRC 53851571
     Copy CRC 53851571
     Copy OK
No errors occurred
AccurateRip summary
Track  1  accurately ripped (confidence 53)  [B8A33820]  (AR v2)
Track  2  accurately ripped (confidence 53)  [C05FAD58]  (AR v2)
Track  3  accurately ripped (confidence 53)  [222D215B]  (AR v2)
Track  4  accurately ripped (confidence 53)  [D5945937]  (AR v2)
Track  5  accurately ripped (confidence 53)  [FC189136]  (AR v2)
Track  6  accurately ripped (confidence 53)  [84210645]  (AR v2)
Track  7  accurately ripped (confidence 53)  [78DEFE1B]  (AR v2)
Track  8  accurately ripped (confidence 53)  [75F6CFC4]  (AR v2)
Track  9  accurately ripped (confidence 53)  [97B5C67B]  (AR v2)
Track 10  accurately ripped (confidence 52)  [7BAFF319]  (AR v2)
Track 11  accurately ripped (confidence 50)  [679B3918]  (AR v2)
Track 12  accurately ripped (confidence 49)  [18E85853]  (AR v2)
All tracks accurately ripped
End of status report
---- CUETools DB Plugin V2.1.6
[CTDB TOCID: a3OdyLjsDMTNFXJPDwCXmbKeyww-] found
Submit result: already submitted
Track | CTDB Status
  1   | (182/182) Accurately ripped
  2   | (182/182) Accurately ripped
  3   | (182/182) Accurately ripped
  4   | (182/182) Accurately ripped
  5   | (182/182) Accurately ripped
  6   | (182/182) Accurately ripped
  7   | (182/182) Accurately ripped
  8   | (182/182) Accurately ripped
  9   | (182/182) Accurately ripped
 10   | (179/182) Accurately ripped
 11   | (179/182) Accurately ripped
 12   | (178/182) Accurately ripped
==== Log checksum 3443ECBE6FA2AF1AB10CF3F9AA7100696308BC88BED5D664C0F6560DA7CA097A ====
Код:
REM DATE 2016
REM DISCID B710C70C
REM COMMENT "ExactAudioCopy v1.3"
PERFORMER "Oasis"
TITLE "Be Here Now RKIDCD85XP (UK Promo) (CD1 Remastered Album)"
REM COMPOSER ""
FILE "2016 - Be Here Now RKIDCD85XP (CD1 Remastered Album).flac" WAVE
  TRACK 01 AUDIO
    TITLE "D’You Know What I Mean?"
    PERFORMER "Oasis"
    REM COMPOSER ""
    INDEX 01 00:00:00
  TRACK 02 AUDIO
    TITLE "My Big Mouth"
    PERFORMER "Oasis"
    REM COMPOSER ""
    INDEX 01 07:43:16
  TRACK 03 AUDIO
    TITLE "Magic Pie"
    PERFORMER "Oasis"
    REM COMPOSER ""
    INDEX 01 12:54:41
  TRACK 04 AUDIO
    TITLE "Stand by Me"
    PERFORMER "Oasis"
    REM COMPOSER ""
    INDEX 01 20:04:69
  TRACK 05 AUDIO
    TITLE "I Hope, I Think, I Know"
    PERFORMER "Oasis"
    REM COMPOSER ""
    INDEX 01 26:00:59
  TRACK 06 AUDIO
    TITLE "The Girl in the Dirty Shirt"
    PERFORMER "Oasis"
    REM COMPOSER ""
    INDEX 01 30:23:14
  TRACK 07 AUDIO
    TITLE "Fade In-Out"
    PERFORMER "Oasis"
    REM COMPOSER ""
    INDEX 01 36:12:62
  TRACK 08 AUDIO
    TITLE "Don’t Go Away"
    PERFORMER "Oasis"
    REM COMPOSER ""
    INDEX 01 43:04:14
  TRACK 09 AUDIO
    TITLE "Be Here Now"
    PERFORMER "Oasis"
    REM COMPOSER ""
    INDEX 01 47:52:64
  TRACK 10 AUDIO
    TITLE "All Around the World"
    PERFORMER "Oasis"
    REM COMPOSER ""
    INDEX 01 53:05:57
  TRACK 11 AUDIO
    TITLE "It’s Gettin’ Better (Man!!)"
    PERFORMER "Oasis"
    REM COMPOSER ""
    INDEX 01 62:24:72
  TRACK 12 AUDIO
    TITLE "All Around the World (Reprise)"
    PERFORMER "Oasis"
    REM COMPOSER ""
    INDEX 01 69:28:25
Треклист:
2.01. Stay Young 5:08
2.02. The Fame 4:36
2.03. Flashbax 5:09
2.04. (I Got) The Fever 5:15
2.05. My Sister Lover 6:00
2.06. Going Nowhere 4:42
2.07. Stand By Me (Live At Bonehead's Outtake) 6:03
2.08. Untitled (Demo) 4:38
2.09. Help! (Live In LA) 3:45
2.10. Setting Sun (Live Radio Broadcast) 3:56
2.11. If We Shadows (Demo) 4:53
2.12. Don't Go Away (Demo) 3:43
2.13. My Big Mouth (Live At Knebworth Park) 5:23
2.14. D'You Know What I Mean? (NG's 2016 Rethink) 7:25
Код:
Exact Audio Copy V1.3 from 2. September 2016
EAC extraction logfile from 30. March 2020, 1:06
Oasis / Be Here Now RKIDCD85XP (CD2 B-sides plus Rare and Unreleaded Recordings)
Used drive  : PIONEER DVD-RW  DVR-218L   Adapter: 1  ID: 0
Read mode               : Secure
Utilize accurate stream : Yes
Defeat audio cache      : Yes
Make use of C2 pointers : No
Read offset correction                      : 6
Overread into Lead-In and Lead-Out          : No
Fill up missing offset samples with silence : Yes
Delete leading and trailing silent blocks   : No
Null samples used in CRC calculations       : Yes
Used interface                              : Native Win32 interface for Win NT & 2000
Used output format              : User Defined Encoder
Selected bitrate                : 320 kBit/s
Quality                         : High
Add ID3 tag                     : No
Command line compressor         : C:\Program Files (x86)\Exact Audio Copy\Flac\flac.exe
Additional command line options : -V -8 -T "Date=%year%" -T "Genre=%genre%" %source%
TOC of the extracted CD
     Track |   Start  |  Length  | Start sector | End sector
    ---------------------------------------------------------
        1  |  0:00.00 |  5:08.13 |         0    |    23112
        2  |  5:08.13 |  4:35.47 |     23113    |    43784
        3  |  9:43.60 |  5:09.31 |     43785    |    66990
        4  | 14:53.16 |  5:15.02 |     66991    |    90617
        5  | 20:08.18 |  5:59.41 |     90618    |   117583
        6  | 26:07.59 |  4:41.47 |    117584    |   138705
        7  | 30:49.31 |  6:02.48 |    138706    |   165903
        8  | 36:52.04 |  4:37.63 |    165904    |   186741
        9  | 41:29.67 |  3:45.03 |    186742    |   203619
       10  | 45:14.70 |  3:55.64 |    203620    |   221308
       11  | 49:10.59 |  4:53.16 |    221309    |   243299
       12  | 54:04.00 |  3:42.41 |    243300    |   259990
       13  | 57:46.41 |  5:22.51 |    259991    |   284191
       14  | 63:09.17 |  7:25.35 |    284192    |   317601
Range status and errors
Selected range
     Filename G:\Music\Oasis\2016 - Be Here Now RKIDCD85XP (UK Promo)\CD2\2016 - Be Here Now RKIDCD85XP (CD2 B-sides plus Rare and Unreleaded Recordings).wav
     Peak level 99.5 %
     Extraction speed 1.9 X
     Range quality 99.9 %
     Test CRC 9340507B
     Copy CRC 9340507B
     Copy OK
No errors occurred
AccurateRip summary
Track  1  accurately ripped (confidence 50)  [B4DCF526]  (AR v2)
Track  2  accurately ripped (confidence 50)  [25265A44]  (AR v2)
Track  3  accurately ripped (confidence 50)  [0ED3D5C5]  (AR v2)
Track  4  accurately ripped (confidence 50)  [98325623]  (AR v2)
Track  5  accurately ripped (confidence 50)  [43C3FCC1]  (AR v2)
Track  6  accurately ripped (confidence 50)  [00BA319B]  (AR v2)
Track  7  accurately ripped (confidence 50)  [5E54F189]  (AR v2)
Track  8  accurately ripped (confidence 50)  [6FA8FE43]  (AR v2)
Track  9  accurately ripped (confidence 50)  [D3AE76A6]  (AR v2)
Track 10  accurately ripped (confidence 50)  [F9AC143D]  (AR v2)
Track 11  accurately ripped (confidence 50)  [B864D8A3]  (AR v2)
Track 12  accurately ripped (confidence 50)  [E73488DB]  (AR v2)
Track 13  accurately ripped (confidence 50)  [A0EC6BBD]  (AR v2)
Track 14  accurately ripped (confidence 50)  [8C95CDF9]  (AR v2)
All tracks accurately ripped
End of status report
---- CUETools DB Plugin V2.1.6
[CTDB TOCID: WeVfs3_ciRh0HCNBo98rqFAH1Rk-] found
Submit result: already submitted
Track | CTDB Status
  1   | (198/198) Accurately ripped
  2   | (198/198) Accurately ripped
  3   | (197/198) Accurately ripped
  4   | (196/198) Accurately ripped
  5   | (196/198) Accurately ripped
  6   | (197/198) Accurately ripped
  7   | (197/198) Accurately ripped
  8   | (197/198) Accurately ripped
  9   | (197/198) Accurately ripped
 10   | (197/198) Accurately ripped
 11   | (197/198) Accurately ripped
 12   | (197/198) Accurately ripped
 13   | (197/198) Accurately ripped
 14   | (196/198) Accurately ripped
==== Log checksum EDF260FEE2C77C1B3EF631AFE0F9D35B05CE1A56C873576D27363C6679597068 ====
Код:
REM GENRE BritPop
REM DATE 2016
REM DISCID C9108A0E
REM COMMENT "ExactAudioCopy v1.3"
PERFORMER "Oasis"
TITLE "Be Here Now RKIDCD85XP (CD2 B-sides plus Rare and Unreleaded Recordings)"
REM COMPOSER ""
FILE "2016 - Be Here Now RKIDCD85XP (CD2 B-sides plus Rare and Unreleaded Recordings).flac" WAVE
  TRACK 01 AUDIO
    TITLE "Stay Young"
    PERFORMER "Oasis"
    REM COMPOSER ""
    INDEX 01 00:00:00
  TRACK 02 AUDIO
    TITLE "The Fame"
    PERFORMER "Oasis"
    REM COMPOSER ""
    INDEX 01 05:08:13
  TRACK 03 AUDIO
    TITLE "Flashbax"
    PERFORMER "Oasis"
    REM COMPOSER ""
    INDEX 01 09:43:60
  TRACK 04 AUDIO
    TITLE "(I Got) The Fever"
    PERFORMER "Oasis"
    REM COMPOSER ""
    INDEX 01 14:53:16
  TRACK 05 AUDIO
    TITLE "My Sister Lover"
    PERFORMER "Oasis"
    REM COMPOSER ""
    INDEX 01 20:08:18
  TRACK 06 AUDIO
    TITLE "Going Nowhere"
    PERFORMER "Oasis"
    REM COMPOSER ""
    INDEX 01 26:07:59
  TRACK 07 AUDIO
    TITLE "Stand by Me (Live at Bonehead’s Outtake)"
    PERFORMER "Oasis"
    REM COMPOSER ""
    INDEX 01 30:49:31
  TRACK 08 AUDIO
    TITLE "Untitled (Demo)"
    PERFORMER "Oasis"
    REM COMPOSER ""
    INDEX 01 36:52:04
  TRACK 09 AUDIO
    TITLE "Help! (Live in LA)"
    PERFORMER "Oasis"
    REM COMPOSER ""
    INDEX 01 41:29:67
  TRACK 10 AUDIO
    TITLE "Setting Sun (Live Radio Broadcast)"
    PERFORMER "Oasis"
    REM COMPOSER ""
    INDEX 01 45:14:70
  TRACK 11 AUDIO
    TITLE "If We Shadows (Demo)"
    PERFORMER "Oasis"
    REM COMPOSER ""
    INDEX 01 49:10:59
  TRACK 12 AUDIO
    TITLE "Don’t Go Away (Demo)"
    PERFORMER "Oasis"
    REM COMPOSER ""
    INDEX 01 54:04:00
  TRACK 13 AUDIO
    TITLE "My Big Mouth (Live at Knebworth Park)"
    PERFORMER "Oasis"
    REM COMPOSER ""
    INDEX 01 57:46:41
  TRACK 14 AUDIO
    TITLE "D’You Know What I Mean? (NG’s 2016 Rethink)"
    PERFORMER "Oasis"
    REM COMPOSER ""
    INDEX 01 63:09:17
Треклист:
3.01. D'You Know What I Mean? Mustique Demo 7:16
3.02. My Big Mouth Mustique Demo Mustique Demo 5:18
3.03. My Sister Lover Mustique Demo 6:09
3.04. Stand By Me Mustique Demo 6:01
3.05. I Hope, I Think, I Know Mustique Demo 4:10
3.06. The Girl In The Dirty Shirt Mustique Demo 5:23
3.07. Don't Go Away Mustique Demo 4:19
3.08. Trip Inside (Be Here Now) Mustique Demo 4:48
3.09. Fade In-Out Mustique Demo 6:00
3.10. Stay Young Mustique Demo 4:58
3.11. Angel Child Mustique Demo 4:29
3.12. The Fame Mustique Demo 4:45
3.13. All Around The World Mustique Demo 6:31
3.14. It's Gettin' Better (Man!!) Mustique Demo 6:39
Код:
Exact Audio Copy V1.3 from 2. September 2016
EAC extraction logfile from 30. March 2020, 9:49
Oasis / Be Here Now RKIDCD85XP (CD3 Mustique Demos)
Used drive  : PIONEER DVD-RW  DVR-218L   Adapter: 1  ID: 0
Read mode               : Secure
Utilize accurate stream : Yes
Defeat audio cache      : Yes
Make use of C2 pointers : No
Read offset correction                      : 6
Overread into Lead-In and Lead-Out          : No
Fill up missing offset samples with silence : Yes
Delete leading and trailing silent blocks   : No
Null samples used in CRC calculations       : Yes
Used interface                              : Native Win32 interface for Win NT & 2000
Used output format              : User Defined Encoder
Selected bitrate                : 320 kBit/s
Quality                         : High
Add ID3 tag                     : No
Command line compressor         : C:\Program Files (x86)\Exact Audio Copy\Flac\flac.exe
Additional command line options : -V -8 -T "Date=%year%" -T "Genre=%genre%" %source%
TOC of the extracted CD
     Track |   Start  |  Length  | Start sector | End sector
    ---------------------------------------------------------
        1  |  0:00.00 |  7:16.28 |         0    |    32727
        2  |  7:16.28 |  5:17.44 |     32728    |    56546
        3  | 12:33.72 |  6:08.66 |     56547    |    84212
        4  | 18:42.63 |  6:01.10 |     84213    |   111297
        5  | 24:43.73 |  4:10.35 |    111298    |   130082
        6  | 28:54.33 |  5:23.20 |    130083    |   154327
        7  | 34:17.53 |  4:18.38 |    154328    |   173715
        8  | 38:36.16 |  4:48.18 |    173716    |   195333
        9  | 43:24.34 |  6:00.01 |    195334    |   222334
       10  | 49:24.35 |  4:58.33 |    222335    |   244717
       11  | 54:22.68 |  4:29.17 |    244718    |   264909
       12  | 58:52.10 |  4:45.30 |    264910    |   286314
       13  | 63:37.40 |  6:30.67 |    286315    |   315631
       14  | 70:08.32 |  6:39.32 |    315632    |   345588
Range status and errors
Selected range
     Filename G:\Music\Oasis\2016 - Be Here Now RKIDCD85XP (UK Promo)\CD3\2016 - Be Here Now RKIDCD85XP (CD3 Mustique Demos).wav
     Peak level 99.9 %
     Extraction speed 2.1 X
     Range quality 99.9 %
     Test CRC 00EB7EAB
     Copy CRC 00EB7EAB
     Copy OK
No errors occurred
AccurateRip summary
Track  1  accurately ripped (confidence 1)  [2D6173C1]  (AR v2)
Track  2  accurately ripped (confidence 1)  [91A018BE]  (AR v2)
Track  3  accurately ripped (confidence 1)  [477FC6F7]  (AR v2)
Track  4  accurately ripped (confidence 1)  [A7E85615]  (AR v2)
Track  5  accurately ripped (confidence 1)  [3EA9C5A8]  (AR v2)
Track  6  accurately ripped (confidence 1)  [A20A081E]  (AR v2)
Track  7  accurately ripped (confidence 1)  [9E7098DE]  (AR v2)
Track  8  accurately ripped (confidence 1)  [73E20D0F]  (AR v2)
Track  9  accurately ripped (confidence 1)  [D7E6280C]  (AR v2)
Track 10  accurately ripped (confidence 1)  [7358B999]  (AR v2)
Track 11  accurately ripped (confidence 1)  [08F9FB70]  (AR v2)
Track 12  accurately ripped (confidence 1)  [D1C606E3]  (AR v2)
Track 13  accurately ripped (confidence 1)  [6A91B9A6]  (AR v2)
Track 14  accurately ripped (confidence 1)  [0FE48713]  (AR v2)
All tracks accurately ripped
End of status report
---- CUETools DB Plugin V2.1.6
[CTDB TOCID: rOPNS4v6eNBN2PenBKpGDphIQTY-] found
Submit result: already submitted
Track | CTDB Status
  1   | (4/4) Accurately ripped
  2   | (4/4) Accurately ripped
  3   | (4/4) Accurately ripped
  4   | (4/4) Accurately ripped
  5   | (4/4) Accurately ripped
  6   | (4/4) Accurately ripped
  7   | (4/4) Accurately ripped
  8   | (4/4) Accurately ripped
  9   | (4/4) Accurately ripped
 10   | (4/4) Accurately ripped
 11   | (4/4) Accurately ripped
 12   | (4/4) Accurately ripped
 13   | (4/4) Accurately ripped
 14   | (4/4) Accurately ripped
==== Log checksum 1BEE66AAB702B72E53D2F3A1AAB6AA49AD40C84CA98736CC8FCDCF8DE9B460EC ====
Код:
REM GENRE BritPop
REM DATE 2016
REM DISCID CA11FF0E
REM COMMENT "ExactAudioCopy v1.3"
PERFORMER "Oasis"
TITLE "Be Here Now RKIDCD85XP (CD3 Mustique Demos)"
REM COMPOSER ""
FILE "2016 - Be Here Now RKIDCD85XP (CD3 Mustique Demos).flac" WAVE
  TRACK 01 AUDIO
    TITLE "D'You Know What I Mean? (Mustique Demo)"
    PERFORMER "Oasis (2)"
    REM COMPOSER ""
    INDEX 01 00:00:00
  TRACK 02 AUDIO
    TITLE "My Big Mouth (Mustique Demo)"
    PERFORMER "Oasis (2)"
    REM COMPOSER ""
    INDEX 01 07:16:28
  TRACK 03 AUDIO
    TITLE "My Sister Lover (Mustique Demo)"
    PERFORMER "Oasis (2)"
    REM COMPOSER ""
    INDEX 01 12:33:72
  TRACK 04 AUDIO
    TITLE "Stand By Me (Mustique Demo)"
    PERFORMER "Oasis (2)"
    REM COMPOSER ""
    INDEX 01 18:42:63
  TRACK 05 AUDIO
    TITLE "I Hope, I Think, I Know (Mustique Demo)"
    PERFORMER "Oasis (2)"
    REM COMPOSER ""
    INDEX 01 24:43:73
  TRACK 06 AUDIO
    TITLE "The Girl In The Dirty Shirt (Mustique Demo)"
    PERFORMER "Oasis (2)"
    REM COMPOSER ""
    INDEX 01 28:54:33
  TRACK 07 AUDIO
    TITLE "Don't Go Away (Mustique Demo)"
    PERFORMER "Oasis (2)"
    REM COMPOSER ""
    INDEX 01 34:17:53
  TRACK 08 AUDIO
    TITLE "Trip Inside (Be Here Now) (Mustique Demo)"
    PERFORMER "Oasis (2)"
    REM COMPOSER ""
    INDEX 01 38:36:16
  TRACK 09 AUDIO
    TITLE "Fade In-Out (Mustique Demo)"
    PERFORMER "Oasis (2)"
    REM COMPOSER ""
    INDEX 01 43:24:34
  TRACK 10 AUDIO
    TITLE "Stay Young (Mustique Demo)"
    PERFORMER "Oasis (2)"
    REM COMPOSER ""
    INDEX 01 49:24:35
  TRACK 11 AUDIO
    TITLE "Angel Child (Mustique Demo)"
    PERFORMER "Oasis (2)"
    REM COMPOSER ""
    INDEX 01 54:22:68
  TRACK 12 AUDIO
    TITLE "The Fame (Mustique Demo)"
    PERFORMER "Oasis (2)"
    REM COMPOSER ""
    INDEX 01 58:52:10
  TRACK 13 AUDIO
    TITLE "All Around The World (Mustique Demo)"
    PERFORMER "Oasis (2)"
    REM COMPOSER ""
    INDEX 01 63:37:40
  TRACK 14 AUDIO
    TITLE "It's Gettin' Better (Man!!) (Mustique Demo)"
    PERFORMER "Oasis (2)"
    REM COMPOSER ""
    INDEX 01 70:08:32
Доп. информация: Здесь на диске 3 настоящий Trip Inside (в коммерческих релизах по какой-то причине был заменен на <загадочный> инструментал)
Правила, инструкции, FAQ!!!
Торрент  Добавлен [28 апр 2020, 19:52] Скачать торрент Магнет ссылка
Скачать торрент
[ Размер 33.83 КБ / Просмотров 4 ]

Статус
Проверен 
 
Размер  1.51 ГБ
Приватный: Нет (DHT включён)
.torrent скачан  0
 


     Отправить личное сообщение
   
Страница 1 из 1
Показать сообщения за:  Поле сортировки  
Начать новую тему Ответить на тему


Сейчас этот форум просматривают: нет зарегистрированных пользователей и гости: 0


Вы не можете начинать темы
Вы не можете отвечать на сообщения
Вы не можете редактировать свои сообщения
Вы не можете удалять свои сообщения
Вы не можете добавлять вложения

Перейти:  
cron