Начать новую тему Ответить на тему
Статистика раздачи
Размер: 409.18 МБ | Добавлен: 26 мар 2019, 19:40 | Скачали: 2
Сидеров: 1  [0 байт/сек]    Личеров: 1  [0 байт/сек]
Пред. тема | След. тема 

Автор
Сообщение

СообщениеДобавлено: 26 мар 2019, 19:40 

Ответить с цитатой 

Sounds Incorporated / Sounds Incorporated (1964) + Studio 2 Stereo (1966)
Жанр: British Invasion / Beat
Носитель: CD
Страна-производитель диска: Great Britain
Год издания: 2004
Издатель (лейбл): Beat Goes On Records
Номер по каталогу: BGOCD661
Страна: Great Britain
Аудиокодек: APE (*.ape)
Тип рипа: image+.cue
Битрейт аудио: lossless
Продолжительность: 01:03:34
Источник (релизер): Я
Наличие сканов в содержимом раздачи: да
01. William Tell
02. Fingertips
03. I'm In Love Again
04. Rinky Dink
05. Bullets
06. Last Night
07. Sound Like Movin'
08. One Mint Julep
09. Ready Teddy
10. Crane (Theme From TV Series)
11. Maria
12. Light Cavalry
13. Goldfinger
14. Little Bird
15. If We Lived On Top Of A Mountain
16. Grab This Thing
17. Yesterday
18. Boil Over
19. What Now My Love
20. Zorba's Dance
21. Bahama Sound
22. On The Rebound
23. The Old And The New
24. Legend Of Lyndos
25. Twilight Of An Empire
Код:
Exact Audio Copy V1.0 beta 3 from 29. August 2011
EAC extraction logfile from 18. December 2013, 13:34
Sounds Incorporated / Sounds Incorporated - Studio 2 Stereo
Used drive  : ATAPI   iHAS124   B   Adapter: 1  ID: 1
Read mode               : Secure
Utilize accurate stream : Yes
Defeat audio cache      : Yes
Make use of C2 pointers : No
Read offset correction                      : 6
Overread into Lead-In and Lead-Out          : No
Fill up missing offset samples with silence : Yes
Delete leading and trailing silent blocks   : No
Null samples used in CRC calculations       : Yes
Used interface                              : Native Win32 interface for Win NT & 2000
Used output format              : Monkey's Audio Lossless Encoder
Selected bitrate                : Extra High Lossless Compression
Quality                         : High
Add ID3 tag                     : No
Command line compressor         : C:\Program Files\Monkey's Audio\MAC.exe
TOC of the extracted CD
     Track |   Start  |  Length  | Start sector | End sector
    ---------------------------------------------------------
        1  |  0:00.00 |  2:06.35 |         0    |     9484
        2  |  2:06.35 |  2:24.74 |      9485    |    20358
        3  |  4:31.34 |  2:16.59 |     20359    |    30617
        4  |  6:48.18 |  2:06.70 |     30618    |    40137
        5  |  8:55.13 |  2:37.15 |     40138    |    51927
        6  | 11:32.28 |  3:02.16 |     51928    |    65593
        7  | 14:34.44 |  2:02.03 |     65594    |    74746
        8  | 16:36.47 |  2:42.13 |     74747    |    86909
        9  | 19:18.60 |  1:23.65 |     86910    |    93199
       10  | 20:42.50 |  2:03.02 |     93200    |   102426
       11  | 22:45.52 |  2:28.05 |    102427    |   113531
       12  | 25:13.57 |  2:53.25 |    113532    |   126531
       13  | 28:07.07 |  2:17.05 |    126532    |   136811
       14  | 30:24.12 |  2:01.00 |    136812    |   145886
       15  | 32:25.12 |  2:18.71 |    145887    |   156307
       16  | 34:44.08 |  2:33.21 |    156308    |   167803
       17  | 37:17.29 |  2:28.58 |    167804    |   178961
       18  | 39:46.12 |  2:45.26 |    178962    |   191362
       19  | 42:31.38 |  3:15.26 |    191363    |   206013
       20  | 45:46.64 |  3:23.66 |    206014    |   221304
       21  | 49:10.55 |  3:10.18 |    221305    |   235572
       22  | 52:20.73 |  2:36.32 |    235573    |   247304
       23  | 54:57.30 |  1:57.13 |    247305    |   256092
       24  | 56:54.43 |  2:56.37 |    256093    |   269329
       25  | 59:51.05 |  2:43.54 |    269330    |   281608
Range status and errors
Selected range
     Filename D:\I\Sounds Incorporated - Sounds Incorporated (1964) + Studio 2 Stereo (1966)\Sounds Incorporated - Sounds Incorporated - Studio 2 Stereo.wav
     Peak level 100.0 %
     Extraction speed 8.0 X
     Range quality 100.0 %
     Test CRC C8E878D2
     Copy CRC C8E878D2
     Copy OK
No errors occurred
End of status report
==== Log checksum ACA7E233040D44888D39FF147E4DE478383778C071D50528AB5BC0EA9AD3E4A8 ====
Sounds Incorporated was one of the first British rock groups to do more than imitate Cliff Richard's backing band the Shadows, and wound up supporting a number of legendary artists while landing a few British hits in their own right. Formed in 1961 in their home area of northwestern Kent, the band included saxophonists/woodwind players Alan "Boots" Holmes and "Major" Griff West (born David Glyde), organist/pianist/baritone saxophonist Barrie Cameron (born Baz Elmes), guitarist John St. John (born John Gillard), bassist Wes Hunter (born Dick Thomas), and drummer Tony Newman (born Richard Anthony Newman). They gigged extensively on a local basis and occasionally played London as well, where they quickly made an impression as one of the few British beat bands led by a horn section. Early on, they backed visiting American rockers like Gene Vincent, Little Richard, Jerry Lee Lewis, and Sam Cooke (among many others), learning the artists' repertoires before their arrival in the U.K. They soon got an opportunity to record with the legendary producer Joe Meek, and in 1963 released several singles on Decca. They also began traveling to Hamburg to entertain American servicemen; there they played the famous Star Club and met and befriended the Beatles. Late in 1963, Beatles manager Brian Epstein signed Sounds Incorporated to his company; the following year, the group not only became singer Cilla Black's regular backing band, but also toured the world as the Beatles' opening act, and released their self-titled debut album (plus several more singles, including an arrangement of "William Tell" that topped the charts in Australia) on Columbia.
During the mid-'60s, they augmented their own recordings with numerous gigs on the U.K. ballroom circuit and plenty of session work; they also landed a fairly sizable hit with an arrangement of "Hall of the Mountain King." A second album, also (confusingly) titled Sounds Incorporated, appeared on the Studio Two label in 1966; the following year, the Beatles invited Cameron, Holmes, and West to be the saxophone section on their Sgt. Pepper track "Good Morning, Good Morning." The same year, however, Newman left to pursue a full-time session career and was replaced by Terry Fogg; Cameron also departed to become an arranger and manager, and his place was taken by Trevor White, who gave the group its first vocalist. As the circuit for traditional-style rock & roll shifted from ballrooms to more upscale cabarets, Sounds Incorporated landed better-paying gigs and used the money to travel to Australia in 1969 and play extensively around Sydney. In 1971, they finally called it a career; some remained in Sydney, while others returned to England and took low-profile, music-related jobs.
Alan Holmes
Barry Cameron
Griff West
John St. John Gillard
Tony Newman
Wes Hunter
Правила, инструкции, FAQ!!!
Торрент  Добавлен [26 мар 2019, 19:40] Скачать торрент Магнет ссылка
Скачать торрент
[ Размер 17.05 КБ / Просмотров 3 ]

Статус
Проверен 
 
Размер  409.18 МБ
Приватный: Нет (DHT включён)
.torrent скачан  2
 


     Отправить личное сообщение
   
Страница 1 из 1
Показать сообщения за:  Поле сортировки  
Начать новую тему Ответить на тему


Сейчас этот форум просматривают: нет зарегистрированных пользователей и гости: 0


Вы не можете начинать темы
Вы не можете отвечать на сообщения
Вы не можете редактировать свои сообщения
Вы не можете удалять свои сообщения
Вы не можете добавлять вложения

Перейти:  
cron