Начать новую тему Ответить на тему
Статистика раздачи
Размер: 524.28 МБ | Добавлен: 26 мар 2019, 20:37 | Скачали: 0
Сидеров: 0  [0 байт/сек]    Личеров: 0  [0 байт/сек]
Пред. тема | След. тема 

Автор
Сообщение

СообщениеДобавлено: 26 мар 2019, 20:37 

Ответить с цитатой 

Supergrass. Supergrass is 10. The Best of 94-04
Жанр: Brit-pop
Страна-производитель диска: Europe
Год издания: 2004
Издатель (лейбл): Parlophone
Номер по каталогу: 07243 571160 2 2
Страна: United Kingdome
Аудиокодек: FLAC (*.flac)
Тип рипа: tracks+.cue
Битрейт аудио: lossless
Продолжительность: 01:11:27
Источник (релизер): CD
Наличие сканов в содержимом раздачи: да
Треклист:
01. Caught By The Fuzz
02. Pumping On Your Stereo
03. Alright
04. Moving
05. Richard III
06. Grace
07. Late In The Day
08. Seen The Light
09. Mansize Rooster
10. Sun Hits The Sky
11. Kiss Of Life
12. Mary
13. Going Out
14. Lenny
15. Bullet
16. It's Not Me
17. Rush Hour Soul
18. Strange Ones
19. Lose It
20. Time
21. Wait For The Sun
Код:
Exact Audio Copy V1.0 beta 3 from 29. August 2011
Отчёт EAC об извлечении, выполненном 3. декабря 2011, 15:49
Supergrass / Supergrass Is 10 - The Best Of 94-04
Дисковод: Optiarc DVD RW AD-5240S   Adapter: 3  ID: 1
Режим чтения                 : Достоверность
Использование точного потока : Да
Отключение кэша аудио        : Да
Использование указателей C2  : Нет
Коррекция смещения при чтении                     : 48
Способность читать области Lead-in и Lead-out     : Нет
Заполнение пропущенных сэмплов тишиной            : Да
Удаление блоков с тишиной в начале и конце        : Нет
При вычислениях CRC использовались нулевые сэмплы : Да
Интерфейс                                         : Встроенный Win32-интерфейс для Win NT/2000
Обработка зазоров                                 : Добавлено к предыдущему треку
Выходной формат          : Пользовательский кодировщик
Выбранный битрейт        : 768 kBit/s
Качество                 : Высокий
Добавление ID3-тега      : Нет
Утилита сжатия           : C:\Program Files\Exact Audio Copy\FLAC\FLAC.EXE
Дополнительные параметры : -6 -V -T "ARTIST=%artist%" -T "TITLE=%title%" -T "ALBUM=%albumtitle%" -T "DATE=%year%" -T "TRACKNUMBER=%tracknr%" -T "GENRE=%genre%" -T "COMMENT=%comment%" -T "BAND=%albuminterpret%" -T "ALBUMARTIST=%albuminterpret%" -T "COMPOSER=%composer%" %haslyrics%--tag-from-file=LYRICS="%lyricsfile%"%haslyrics% -T "DISCNUMBER=%cdnumber%" -T "TOTALDISCS=%totalcds%" -T "TOTALTRACKS=%numtracks%" %hascover%--picture="%coverfile%"%hascover% %source% -o %dest%
TOC извлечённого CD
     Трек |   Старт  | Длительность | Начальный сектор | Конечный сектор
    ---------------------------------------------------------------------
       1  |  0:00.00 |    2:19.31   |           0      |      10455
       2  |  2:19.31 |    3:20.35   |       10456      |      25490
       3  |  5:39.66 |    3:02.70   |       25491      |      39210
       4  |  8:42.61 |    4:27.52   |       39211      |      59287
       5  | 13:10.38 |    3:21.01   |       59288      |      74363
       6  | 16:31.39 |    2:32.45   |       74364      |      85808
       7  | 19:04.09 |    4:47.08   |       85809      |     107341
       8  | 23:51.17 |    2:27.54   |      107342      |     118420
       9  | 26:18.71 |    2:40.15   |      118421      |     130435
      10  | 28:59.11 |    4:53.69   |      130436      |     152479
      11  | 33:53.05 |    4:03.10   |      152480      |     170714
      12  | 37:56.15 |    4:02.48   |      170715      |     188912
      13  | 41:58.63 |    4:16.41   |      188913      |     208153
      14  | 46:15.29 |    2:42.04   |      208154      |     220307
      15  | 48:57.33 |    2:32.01   |      220308      |     231708
      16  | 51:29.34 |    2:57.50   |      231709      |     245033
      17  | 54:27.09 |    2:56.24   |      245034      |     258257
      18  | 57:23.33 |    3:59.53   |      258258      |     276235
      19  | 61:23.11 |    2:39.50   |      276236      |     288210
      20  | 64:02.61 |    3:14.28   |      288211      |     302788
      21  | 67:17.14 |    4:08.62   |      302789      |     321450
Трек  1
     Имя файла L:\Новая папка\01 Caught By The Fuzz.wav
     Длина предзазора  0:00:02.00
     Пиковый уровень 98.0 %
     Скорость извлечения 1.8 X
     Качество трека 99.9 %
     CRC теста EFC7CDC8
     CRC копии EFC7CDC8
     Точное извлечение (достоверность 8)  [279C785B]  (AR v2)
     Копирование... OK
Трек  2
     Имя файла L:\Новая папка\02 Pumping On Your Stereo.wav
     Длина предзазора  0:00:02.62
     Пиковый уровень 97.9 %
     Скорость извлечения 2.5 X
     Качество трека 100.0 %
     CRC теста 46ACB193
     CRC копии 46ACB193
     Точное извлечение (достоверность 8)  [503FC2CE]  (AR v2)
     Копирование... OK
Трек  3
     Имя файла L:\Новая папка\03 Alright.wav
     Длина предзазора  0:00:01.38
     Пиковый уровень 98.0 %
     Скорость извлечения 2.2 X
     Качество трека 99.9 %
     CRC теста A275434F
     CRC копии A275434F
     Точное извлечение (достоверность 8)  [B2424BFE]  (AR v2)
     Копирование... OK
Трек  4
     Имя файла L:\Новая папка\04 Moving.wav
     Длина предзазора  0:00:03.07
     Пиковый уровень 97.9 %
     Скорость извлечения 3.0 X
     Качество трека 100.0 %
     CRC теста D356AA07
     CRC копии D356AA07
     Точное извлечение (достоверность 8)  [332072DF]  (AR v2)
     Копирование... OK
Трек  5
     Имя файла L:\Новая папка\05 Richard III.wav
     Длина предзазора  0:00:02.00
     Пиковый уровень 98.0 %
     Скорость извлечения 3.1 X
     Качество трека 100.0 %
     CRC теста 72940BD7
     CRC копии 72940BD7
     Точное извлечение (достоверность 8)  [66126124]  (AR v2)
     Копирование... OK
Трек  6
     Имя файла L:\Новая папка\06 Grace.wav
     Длина предзазора  0:00:02.72
     Пиковый уровень 98.0 %
     Скорость извлечения 3.1 X
     Качество трека 100.0 %
     CRC теста 88381C26
     CRC копии 88381C26
     Точное извлечение (достоверность 8)  [0107F42C]  (AR v2)
     Копирование... OK
Трек  7
     Имя файла L:\Новая папка\07 Late In The Day.wav
     Длина предзазора  0:00:03.06
     Пиковый уровень 98.0 %
     Скорость извлечения 3.5 X
     Качество трека 100.0 %
     CRC теста ADC086E3
     CRC копии ADC086E3
     Точное извлечение (достоверность 8)  [32E79D49]  (AR v2)
     Копирование... OK
Трек  8
     Имя файла L:\Новая папка\08 Seen The Light.wav
     Длина предзазора  0:00:04.01
     Пиковый уровень 98.0 %
     Скорость извлечения 2.8 X
     Качество трека 99.9 %
     CRC теста D37CFCCD
     CRC копии D37CFCCD
     Точное извлечение (достоверность 8)  [0D69F5EA]  (AR v2)
     Копирование... OK
Трек  9
     Имя файла L:\Новая папка\09 Mansize Rooster.wav
     Длина предзазора  0:00:02.29
     Пиковый уровень 98.0 %
     Скорость извлечения 3.5 X
     Качество трека 100.0 %
     CRC теста E604592E
     CRC копии E604592E
     Точное извлечение (достоверность 8)  [FCFCEC46]  (AR v2)
     Копирование... OK
Трек 10
     Имя файла L:\Новая папка\10 Sun Hits The Sky.wav
     Длина предзазора  0:00:06.29
     Пиковый уровень 98.0 %
     Скорость извлечения 4.0 X
     Качество трека 100.0 %
     CRC теста 12870213
     CRC копии 12870213
     Точное извлечение (достоверность 8)  [48BE8BF3]  (AR v2)
     Копирование... OK
Трек 11
     Имя файла L:\Новая папка\11 Kiss Of Life.wav
     Длина предзазора  0:00:03.49
     Пиковый уровень 97.9 %
     Скорость извлечения 4.1 X
     Качество трека 100.0 %
     CRC теста A56518FE
     CRC копии A56518FE
     Точное извлечение (достоверность 8)  [B52C6513]  (AR v2)
     Копирование... OK
Трек 12
     Имя файла L:\Новая папка\12 Mary.wav
     Длина предзазора  0:00:03.13
     Пиковый уровень 97.9 %
     Скорость извлечения 4.2 X
     Качество трека 100.0 %
     CRC теста 37A4F038
     CRC копии 37A4F038
     Точное извлечение (достоверность 8)  [255BCCC0]  (AR v2)
     Копирование... OK
Трек 13
     Имя файла L:\Новая папка\13 Going Out.wav
     Длина предзазора  0:00:02.65
     Пиковый уровень 98.0 %
     Скорость извлечения 4.4 X
     Качество трека 100.0 %
     CRC теста E8D98496
     CRC копии E8D98496
     Точное извлечение (достоверность 8)  [1FF0B174]  (AR v2)
     Копирование... OK
Трек 14
     Имя файла L:\Новая папка\14 Lenny.wav
     Длина предзазора  0:00:01.46
     Пиковый уровень 98.0 %
     Скорость извлечения 4.2 X
     Качество трека 100.0 %
     CRC теста 17999C24
     CRC копии 17999C24
     Точное извлечение (достоверность 8)  [EE4FB268]  (AR v2)
     Копирование... OK
Трек 15
     Имя файла L:\Новая папка\15 Bullet.wav
     Длина предзазора  0:00:01.35
     Пиковый уровень 98.0 %
     Скорость извлечения 4.2 X
     Качество трека 100.0 %
     CRC теста CB1CBD6C
     CRC копии CB1CBD6C
     Точное извлечение (достоверность 8)  [EB0E7437]  (AR v2)
     Копирование... OK
Трек 16
     Имя файла L:\Новая папка\16 It's Not Me.wav
     Длина предзазора  0:00:03.43
     Пиковый уровень 98.0 %
     Скорость извлечения 4.5 X
     Качество трека 100.0 %
     CRC теста 59104A0D
     CRC копии 59104A0D
     Точное извлечение (достоверность 8)  [45ABF1B0]  (AR v2)
     Копирование... OK
Трек 17
     Имя файла L:\Новая папка\17 Rush Hour Soul.wav
     Длина предзазора  0:00:02.41
     Пиковый уровень 98.0 %
     Скорость извлечения 4.5 X
     Качество трека 100.0 %
     CRC теста 32B53F28
     CRC копии 32B53F28
     Точное извлечение (достоверность 8)  [A3B7F711]  (AR v2)
     Копирование... OK
Трек 18
     Имя файла L:\Новая папка\18 Strange Ones.wav
     Длина предзазора  0:00:03.08
     Пиковый уровень 98.0 %
     Скорость извлечения 4.3 X
     Качество трека 99.9 %
     CRC теста 03079439
     CRC копии 03079439
     Точное извлечение (достоверность 8)  [E44360A8]  (AR v2)
     Копирование... OK
Трек 19
     Имя файла L:\Новая папка\19 Lose It.wav
     Длина предзазора  0:00:01.11
     Пиковый уровень 98.0 %
     Скорость извлечения 4.0 X
     Качество трека 99.9 %
     CRC теста 67566300
     CRC копии 67566300
     Точное извлечение (достоверность 8)  [3DF5F930]  (AR v2)
     Копирование... OK
Трек 20
     Имя файла L:\Новая папка\20 Time.wav
     Длина предзазора  0:00:02.19
     Пиковый уровень 98.0 %
     Скорость извлечения 5.0 X
     Качество трека 100.0 %
     CRC теста 3B26180F
     CRC копии 3B26180F
     Точное извлечение (достоверность 8)  [65998FB1]  (AR v2)
     Копирование... OK
Трек 21
     Имя файла L:\Новая папка\21 Wait For The Sun.wav
     Длина предзазора  0:00:03.47
     Пиковый уровень 97.9 %
     Скорость извлечения 5.2 X
     Качество трека 100.0 %
     CRC теста 7D9F8595
     CRC копии 7D9F8595
     Точное извлечение (достоверность 8)  [23BD5356]  (AR v2)
     Копирование... OK
Все треки извлечены точно
Ошибок не произошло
Конец отчёта
==== Контрольная сумма отчёта 48B5CA7BBF3F6ADD70915CE6507FBBC0CA41CEDA0484C3BC025087917360A37C ====
Код:
REM GENRE Rock
REM DATE 2004
REM DISCID 3310BE15
REM COMMENT "ExactAudioCopy v1.0b3"
CATALOG 0724357899420
PERFORMER "Supergrass"
TITLE "Supergrass Is 10 - The Best Of 94-04"
FILE "01 Caught By The Fuzz.wav" WAVE
  TRACK 01 AUDIO
    TITLE "Caught By The Fuzz"
    PERFORMER "Supergrass"
    ISRC GBAYE9400169
    INDEX 01 00:00:00
  TRACK 02 AUDIO
    TITLE "Pumping On Your Stereo"
    PERFORMER "Supergrass"
    ISRC GBAYE9900752
    INDEX 00 02:16:44
FILE "02 Pumping On Your Stereo.wav" WAVE
    INDEX 01 00:00:00
  TRACK 03 AUDIO
    TITLE "Alright"
    PERFORMER "Supergrass"
    ISRC GBAYE9500044
    INDEX 00 03:18:72
FILE "03 Alright.wav" WAVE
    INDEX 01 00:00:00
  TRACK 04 AUDIO
    TITLE "Moving"
    PERFORMER "Supergrass"
    ISRC GBAYE9901457
    INDEX 00 02:59:63
FILE "04 Moving.wav" WAVE
    INDEX 01 00:00:00
  TRACK 05 AUDIO
    TITLE "Richard III"
    PERFORMER "Supergrass"
    ISRC GBAYE9600077
    INDEX 00 04:25:52
FILE "05 Richard III.wav" WAVE
    INDEX 01 00:00:00
  TRACK 06 AUDIO
    TITLE "Grace"
    PERFORMER "Supergrass"
    ISRC GBAYE0201028
    INDEX 00 03:18:04
FILE "06 Grace.wav" WAVE
    INDEX 01 00:00:00
  TRACK 07 AUDIO
    TITLE "Late In The Day"
    PERFORMER "Supergrass"
    ISRC GBAYE9701491
    INDEX 00 02:29:39
FILE "07 Late In The Day.wav" WAVE
    INDEX 01 00:00:00
  TRACK 08 AUDIO
    TITLE "Seen The Light"
    PERFORMER "Supergrass"
    ISRC GBAYE0201023
    INDEX 00 04:43:07
FILE "08 Seen The Light.wav" WAVE
    INDEX 01 00:00:00
  TRACK 09 AUDIO
    TITLE "Mansize Rooster"
    PERFORMER "Supergrass"
    ISRC GBAYE9500062
    INDEX 00 02:25:25
FILE "09 Mansize Rooster.wav" WAVE
    INDEX 01 00:00:00
  TRACK 10 AUDIO
    TITLE "Sun Hits The Sky"
    PERFORMER "Supergrass"
    ISRC GBAYE9600152
    INDEX 00 02:33:61
FILE "10 Sun Hits The Sky.wav" WAVE
    INDEX 01 00:00:00
  TRACK 11 AUDIO
    TITLE "Kiss Of Life"
    PERFORMER "Supergrass"
    ISRC GBAYE0400436
    INDEX 00 04:50:20
FILE "11 Kiss Of Life.wav" WAVE
    INDEX 01 00:00:00
  TRACK 12 AUDIO
    TITLE "Mary"
    PERFORMER "Supergrass"
    ISRC GBAYE9901464
    INDEX 00 03:59:72
FILE "12 Mary.wav" WAVE
    INDEX 01 00:00:00
  TRACK 13 AUDIO
    TITLE "Going Out"
    PERFORMER "Supergrass"
    ISRC GBAYE9600016
    INDEX 00 03:59:58
FILE "13 Going Out.wav" WAVE
    INDEX 01 00:00:00
  TRACK 14 AUDIO
    TITLE "Lenny"
    PERFORMER "Supergrass"
    ISRC GBAYE9500157
    INDEX 00 04:14:70
FILE "14 Lenny.wav" WAVE
    INDEX 01 00:00:00
  TRACK 15 AUDIO
    TITLE "Bullet"
    PERFORMER "Supergrass"
    ISRC GBAYE0400651
    INDEX 00 02:40:44
FILE "15 Bullet.wav" WAVE
    INDEX 01 00:00:00
  TRACK 16 AUDIO
    TITLE "It's Not Me"
    PERFORMER "Supergrass"
    ISRC GBAYE9701493
    INDEX 00 02:28:33
FILE "16 It's Not Me.wav" WAVE
    INDEX 01 00:00:00
  TRACK 17 AUDIO
    TITLE "Rush Hour Soul"
    PERFORMER "Supergrass"
    ISRC GBAYE0201022
    INDEX 00 02:55:09
FILE "17 Rush Hour Soul.wav" WAVE
    INDEX 01 00:00:00
  TRACK 18 AUDIO
    TITLE "Strange Ones"
    PERFORMER "Supergrass"
    ISRC GBAYE9400170
    INDEX 00 02:53:16
FILE "18 Strange Ones.wav" WAVE
    INDEX 01 00:00:00
  TRACK 19 AUDIO
    TITLE "Lose It"
    PERFORMER "Supergrass"
    ISRC GBAYE9500073
    INDEX 00 03:58:42
FILE "19 Lose It.wav" WAVE
    INDEX 01 00:00:00
  TRACK 20 AUDIO
    TITLE "Time"
    PERFORMER "Supergrass"
    ISRC GBAYE9500161
    INDEX 00 02:37:31
FILE "20 Time.wav" WAVE
    INDEX 01 00:00:00
  TRACK 21 AUDIO
    TITLE "Wait For The Sun"
    PERFORMER "Supergrass"
    ISRC GBAYE9500733
    INDEX 00 03:10:56
FILE "21 Wait For The Sun.wav" WAVE
    INDEX 01 00:00:00
Правила, инструкции, FAQ!!!
Торрент  Добавлен [26 мар 2019, 20:37] Скачать торрент Магнет ссылка
Скачать торрент
[ Размер 24.07 КБ / Просмотров 9 ]

Статус
Проверен 
 
Размер  524.28 МБ
Приватный: Нет (DHT включён)
.torrent скачан  0
 


     Отправить личное сообщение
   
Страница 1 из 1
Показать сообщения за:  Поле сортировки  
Начать новую тему Ответить на тему


Сейчас этот форум просматривают: нет зарегистрированных пользователей и гости: 0


Вы не можете начинать темы
Вы не можете отвечать на сообщения
Вы не можете редактировать свои сообщения
Вы не можете удалять свои сообщения
Вы не можете добавлять вложения

Перейти:  
cron