Начать новую тему Ответить на тему
Статистика раздачи
Размер: 347.82 МБ | Добавлен: 26 мар 2019, 20:00 | Скачали: 0
Сидеров: 0  [0 байт/сек]    Личеров: 0  [0 байт/сек]
Пред. тема | След. тема 

Автор
Сообщение

СообщениеДобавлено: 26 мар 2019, 20:00 

Ответить с цитатой 

McAlmont And Butler / The Sound Of...
Жанр: Brit Pop, Rock
Страна-производитель диска: UK
Год издания диска: 1995
Издатель (лейбл): Hut Rec.
Номер по каталогу: CDHUT32
Страна: England
Аудиокодек: APE (*.ape)
Тип рипа: image+.cue
Битрейт аудио: lossless
Продолжительность: 61:44
Источник (релизер): avax
Наличие сканов в содержимом раздачи: да
Треклист:
01 Yes (Full Version) 4:54
02 What's The Excuse This Time? 4:14
03 The Right Thing 6:13
04 Although 4:22
05 Don't Call It Soul 3:05
06 Disappointment / Interval 8:57
07 The Debitor 5:12
08 How About You? 4:11
09 Tonight 5:02
10 You'll Lose A Good Thing 4:25
11 You Do (Full Length) 11:10
Код:
Exact Audio Copy V1.0 beta 2 from 29. April 2011
EAC extraction logfile from 16. November 2011, 15:24
McAlmont And Butler / The Sound Of McAlmont And Butler
Used drive  : HL-DT-STDVDRAM GSA-H12L   Adapter: 0  ID: 0
Read mode               : Secure
Utilize accurate stream : Yes
Defeat audio cache      : Yes
Make use of C2 pointers : No
Read offset correction                      : 667
Overread into Lead-In and Lead-Out          : No
Fill up missing offset samples with silence : Yes
Delete leading and trailing silent blocks   : No
Null samples used in CRC calculations       : Yes
Used interface                              : Native Win32 interface for Win NT & 2000
Used output format              : User Defined Encoder
Selected bitrate                : 896 kBit/s
Quality                         : High
Add ID3 tag                     : No
Command line compressor         : C:\Program Files\FLAC\flac.exe
Additional command line options : -5 -T "Artist=%artist%" -T "Title=%title%" -T "Album=%albumtitle%" -T "Date=%year%" -T "Tracknumber=%tracknr%" -T "Genre=%genre%" %source% -o %dest%
TOC of the extracted CD
     Track |   Start  |  Length  | Start sector | End sector
    ---------------------------------------------------------
        1  |  0:00.00 |  4:53.67 |         0    |    22041
        2  |  4:53.67 |  4:13.40 |     22042    |    41056
        3  |  9:07.32 |  6:13.10 |     41057    |    69041
        4  | 15:20.42 |  4:21.50 |     69042    |    88666
        5  | 19:42.17 |  3:05.33 |     88667    |   102574
        6  | 22:47.50 |  8:57.07 |    102575    |   142856
        7  | 31:44.57 |  5:11.63 |    142857    |   166244
        8  | 36:56.45 |  4:10.45 |    166245    |   185039
        9  | 41:07.15 |  5:02.17 |    185040    |   207706
       10  | 46:09.32 |  4:25.35 |    207707    |   227616
       11  | 50:34.67 | 11:09.70 |    227617    |   277861
Range status and errors
Selected range
     Filename I:\=== VINYL RIPS ===\=== EAC===\McAlmont And Butler - The Sound Of McAlmont And Butler.wav
     Peak level 99.4 %
     Extraction speed 7.9 X
     Range quality 99.9 %
     Test CRC 3CD3E88B
     Copy CRC 3CD3E88B
     Copy OK
No errors occurred
AccurateRip summary
Track  1  accurately ripped (confidence 3)  [9E59D493]  (AR v2)
Track  2  accurately ripped (confidence 3)  [18EECAD0]  (AR v2)
Track  3  accurately ripped (confidence 3)  [8EBDA67D]  (AR v2)
Track  4  accurately ripped (confidence 3)  [E9F23884]  (AR v2)
Track  5  accurately ripped (confidence 3)  [B17EF6D7]  (AR v2)
Track  6  accurately ripped (confidence 3)  [8AFA18E8]  (AR v2)
Track  7  accurately ripped (confidence 3)  [0AF80BD3]  (AR v2)
Track  8  accurately ripped (confidence 3)  [F63C374B]  (AR v2)
Track  9  accurately ripped (confidence 3)  [431E0841]  (AR v2)
Track 10  accurately ripped (confidence 3)  [A699D349]  (AR v2)
Track 11  accurately ripped (confidence 3)  [C907B15F]  (AR v2)
All tracks accurately ripped
End of status report
==== Log checksum 6BAB26F318E3CD85F5465E554615EEBB3D8FEB91BB7F87F60F86612424EA8742 ====
Код:
auCDtect: CD records authenticity detector, version 0.8.2
Copyright (c) 2004 Oleg Berngardt. All rights reserved.
Copyright (c) 2004 Alexander Djourik. All rights reserved.
Detect mode (0..40 with 0 = most accurate):  8 (default)
McAlmont And Butler - The Sound Of McAlmont And Butler.wav:  track looks like CDDA with probability 100%.
Правила, инструкции, FAQ!!!
Торрент  Добавлен [26 мар 2019, 20:00] Скачать торрент Магнет ссылка
Скачать торрент
[ Размер 14.4 КБ / Просмотров 5 ]

Статус
Проверен 
 
Размер  347.82 МБ
Приватный: Нет (DHT включён)
.torrent скачан  0
 


     Отправить личное сообщение
   
Страница 1 из 1
Показать сообщения за:  Поле сортировки  
Начать новую тему Ответить на тему


Сейчас этот форум просматривают: нет зарегистрированных пользователей и гости: 0


Вы не можете начинать темы
Вы не можете отвечать на сообщения
Вы не можете редактировать свои сообщения
Вы не можете удалять свои сообщения
Вы не можете добавлять вложения

Перейти:  
cron