Начать новую тему Ответить на тему
Статистика раздачи
Размер: 206.15 МБ | Добавлен: 26 мар 2019, 20:30 | Скачали: 0
Сидеров: 1  [0 байт/сек]    Личеров: 1  [0 байт/сек]
Пред. тема | След. тема 

Автор
Сообщение

СообщениеДобавлено: 26 мар 2019, 20:30 

Ответить с цитатой 

The Divine Comedy - A Short Album About Love
Label: Setanta Records
Catalog#: SETCD036
Format: CD, MiniAlbum
Country: Europe
Жанр: Brit Pop-Rock, Chamber Pop
Год выпуска диска: 1997
Аудио кодек: FLAC
Тип рипа: tracks+.cue
Битрейт аудио: lossless, 900 kbps ABR
Продолжительность: 00:31:58
Источник: holyfuckingshit40000.blogspot.com, гранд мерси: nostalghia
Треклист:
1. In Pursuit Of Happiness 3:31
2. Everybody Knows (Except You) 3:48
3. Someone 5:58
4. If... 4:25
5. If I Were You (I'd Be Through With Me) 4:41
6. Timewatching 4:42
7. I'm All You Need 4:51
Credits:
Cello - Betsy Taylor , Duncan Moulton , Robbie Jacobs (2)
Double Bass - Peter Devlin , Philip Dawson
Drums - Miguel Barradas
Engineer, Mixed By - Jon Jacobs
Guitar - Bryan Mills , Ivor Talbot
Horns - Matthew Gunner
Mastered By - Ian Cooper
Oboe - Max Spiers
Organ [Hammond] - Stuart Bates
Percussion - Robert Farrer*
Piano, Arranged By - Joby Talbot
Saxophone, Flute - Charlotte Glasson
Trombone - Jane Butterfield
Trumpet - Simon Jones (5)
Trumpet, Flugelhorn - Adam Howard
Viola - John Murphy (5) , Jong On Lau , Yannick Dondelinger , Zoe Lake
Violin - Benjamin Harte , Benjamin Nabarro , Emily Davis (2) , Juliet Warden , Kate Birchall , Krista Juanita Caspersz , Lisa Betteridge , Mary Martin , Simon Baggs , Timothy Myall*
Vocals, Guitar, Written-By - Neil Hannon
Код:
Exact Audio Copy V0.99 prebeta 5 from 4. May 2009
EAC extraction logfile from 19. October 2009, 22:41
The Divine Comedy / A Short Album About Love
Used drive  : _NEC    DVD_RW ND-2510A   Adapter: 0  ID: 1
Read mode               : Secure
Utilize accurate stream : Yes
Defeat audio cache      : Yes
Make use of C2 pointers : No
Read offset correction                      : 48
Overread into Lead-In and Lead-Out          : No
Fill up missing offset samples with silence : Yes
Delete leading and trailing silent blocks   : No
Null samples used in CRC calculations       : Yes
Used interface                              : Native Win32 interface for Win NT & 2000
Gap handling                                : Appended to previous track
Used output format              : User Defined Encoder
Selected bitrate                : 192 kBit/s
Quality                         : High
Add ID3 tag                     : No
Command line compressor         : F:\Exact Audio Copy\Flac\flac.exe
Additional command line options : -V -8 -T "artist=%a" -T "title=%t" -T "album=%g" -T "date=%y" -T "tracknumber=%n" -T "genre=%m" %s
TOC of the extracted CD
     Track |   Start  |  Length  | Start sector | End sector
    ---------------------------------------------------------
        1  |  0:00.00 |  3:31.17 |         0    |    15841
        2  |  3:31.17 |  3:48.23 |     15842    |    32964
        3  |  7:19.40 |  5:58.05 |     32965    |    59819
        4  | 13:17.45 |  4:25.52 |     59820    |    79746
        5  | 17:43.22 |  4:41.25 |     79747    |   100846
        6  | 22:24.47 |  4:42.15 |    100847    |   122011
        7  | 27:06.62 |  4:51.38 |    122012    |   143874
Track  1
     Filename F:\EAC Rips\The Divine Comedy - 1997 - A Short Album About Love [FLAC]\01 - In Pursuit of Happiness.wav
     Pre-gap length  0:00:02.00
     Peak level 99.6 %
     Track quality 100.0 %
     Test CRC 5F4B688A
     Copy CRC 5F4B688A
     Accurately ripped (confidence 11)  [06F8A8FD]
     Copy OK
Track  2
     Filename F:\EAC Rips\The Divine Comedy - 1997 - A Short Album About Love [FLAC]\02 - Everybody Knows (Except You).wav
     Pre-gap length  0:00:00.02
     Peak level 98.6 %
     Track quality 100.0 %
     Test CRC 1AD86C5B
     Copy CRC 1AD86C5B
     Accurately ripped (confidence 11)  [8B35A76D]
     Copy OK
Track  3
     Filename F:\EAC Rips\The Divine Comedy - 1997 - A Short Album About Love [FLAC]\03 - Someone.wav
     Pre-gap length  0:00:00.04
     Peak level 97.0 %
     Track quality 100.0 %
     Test CRC D2F370F0
     Copy CRC D2F370F0
     Accurately ripped (confidence 12)  [E2F8A4BF]
     Copy OK
Track  4
     Filename F:\EAC Rips\The Divine Comedy - 1997 - A Short Album About Love [FLAC]\04 - If....wav
     Pre-gap length  0:00:00.04
     Peak level 99.3 %
     Track quality 100.0 %
     Test CRC 39B9058F
     Copy CRC 39B9058F
     Accurately ripped (confidence 12)  [AF580070]
     Copy OK
Track  5
     Filename F:\EAC Rips\The Divine Comedy - 1997 - A Short Album About Love [FLAC]\05 - If I Were You (I'd Be Through With Me).wav
     Pre-gap length  0:00:00.02
     Peak level 97.0 %
     Track quality 100.0 %
     Test CRC 3382017D
     Copy CRC 3382017D
     Accurately ripped (confidence 12)  [7B74F75E]
     Copy OK
Track  6
     Filename F:\EAC Rips\The Divine Comedy - 1997 - A Short Album About Love [FLAC]\06 - Timewatching.wav
     Pre-gap length  0:00:00.02
     Peak level 98.5 %
     Track quality 100.0 %
     Test CRC 68899DE5
     Copy CRC 68899DE5
     Accurately ripped (confidence 10)  [D28792C5]
     Copy OK
Track  7
     Filename F:\EAC Rips\The Divine Comedy - 1997 - A Short Album About Love [FLAC]\07 - I'm All You Need.wav
     Pre-gap length  0:00:00.02
     Peak level 99.6 %
     Track quality 100.0 %
     Test CRC 33A33A93
     Copy CRC 33A33A93
     Accurately ripped (confidence 12)  [75B5432D]
     Copy OK
All tracks accurately ripped
No errors occurred
End of status report
Код:
REM GENRE Unknown
REM DATE 1997
REM DISCID 55077E07
REM COMMENT "ExactAudioCopy v0.99pb5"
FILE "The Divine Comedy - 1997 - A Short Album About Love [FLAC]\01 - In Pursuit of Happiness.flac" WAVE
  TRACK 01 AUDIO
    INDEX 01 00:00:00
  TRACK 02 AUDIO
    INDEX 00 03:31:15
FILE "The Divine Comedy - 1997 - A Short Album About Love [FLAC]\02 - Everybody Knows (Except You).flac" WAVE
    INDEX 01 00:00:00
  TRACK 03 AUDIO
    INDEX 00 03:48:20
FILE "The Divine Comedy - 1997 - A Short Album About Love [FLAC]\03 - Someone.flac" WAVE
    INDEX 01 00:00:00
  TRACK 04 AUDIO
    INDEX 00 05:58:02
FILE "The Divine Comedy - 1997 - A Short Album About Love [FLAC]\04 - If....flac" WAVE
    INDEX 01 00:00:00
  TRACK 05 AUDIO
    INDEX 00 04:25:50
FILE "The Divine Comedy - 1997 - A Short Album About Love [FLAC]\05 - If I Were You (I'd Be Through With Me).flac" WAVE
    INDEX 01 00:00:00
  TRACK 06 AUDIO
    INDEX 00 04:41:23
FILE "The Divine Comedy - 1997 - A Short Album About Love [FLAC]\06 - Timewatching.flac" WAVE
    INDEX 01 00:00:00
  TRACK 07 AUDIO
    INDEX 00 04:42:13
FILE "The Divine Comedy - 1997 - A Short Album About Love [FLAC]\07 - I'm All You Need.flac" WAVE
    INDEX 01 00:00:00
Правила, инструкции, FAQ!!!
Торрент  Добавлен [26 мар 2019, 20:30] Скачать торрент Магнет ссылка
Скачать торрент
[ Размер 17.54 КБ / Просмотров 2 ]

Статус
Проверен 
 
Размер  206.15 МБ
Приватный: Нет (DHT включён)
.torrent скачан  0
 


     Отправить личное сообщение
   
Страница 1 из 1
Показать сообщения за:  Поле сортировки  
Начать новую тему Ответить на тему


Сейчас этот форум просматривают: нет зарегистрированных пользователей и гости: 0


Вы не можете начинать темы
Вы не можете отвечать на сообщения
Вы не можете редактировать свои сообщения
Вы не можете удалять свои сообщения
Вы не можете добавлять вложения

Перейти:  
cron