Начать новую тему Ответить на тему
Статистика раздачи
Размер: 284.37 МБ | Добавлен: 26 мар 2019, 20:41 | Скачали: 0
Сидеров: 0  [0 байт/сек]    Личеров: 0  [0 байт/сек]
Пред. тема | След. тема 

Автор
Сообщение

СообщениеДобавлено: 26 мар 2019, 20:41 

Ответить с цитатой 


Ocean Colour Scene / On The Leyline

Жанр: Brit Pop, Indie Rock
Страна-производитель диска: UK
Год издания диска: 2007
Издатель (лейбл): Moseley Shoals Records
Номер по каталогу: OCSCD5
Страна: UK
Аудиокодек: FLAC (*.flac)
Тип рипа: tracks+.cue
Битрейт аудио: lossless
Источник (релизер): what.cd
Наличие сканов в содержимом раздачи: нет
Треклист:
01. I Told You So (02:12)
02. On The Leyline, Waiting (02:24)
03. For Dancers Only (03:43)
04. Man In The Middle (04:40)
05. I Just Got Over You (03:40)
06. Go To Sea (05:22)
07. These Days I'm Tired (02:54)
08. You'll Never Find Me (02:24)
09. Don't Get Me (03:28)
10. Loneliest Girl In The Whole Wide World (02:42)
11. Mr Brown (02:30)
12. Two Lovers (02:11)
13. Daylight (01:32)
Код:
Exact Audio Copy V1.0 beta 1 from 15. November 2010
EAC extraction logfile from 24. January 2011, 18:38
Ocean Colour Scene / On The Leyline
Used drive  : TSSTcorpCDDVDW TS-L633C   Adapter: 1  ID: 0
Read mode               : Secure
Utilize accurate stream : Yes
Defeat audio cache      : Yes
Make use of C2 pointers : No
Read offset correction                      : 6
Overread into Lead-In and Lead-Out          : No
Fill up missing offset samples with silence : Yes
Delete leading and trailing silent blocks   : No
Null samples used in CRC calculations       : Yes
Used interface                              : Native Win32 interface for Win NT & 2000
Gap handling                                : Appended to previous track
Used output format              : User Defined Encoder
Selected bitrate                : 768 kBit/s
Quality                         : High
Add ID3 tag                     : No
Command line compressor         : D:\Program Files\Exact Audio Copy\FLAC\FLAC.EXE
Additional command line options : -V -8 -T "artist=%a" -T "title=%t" -T "album=%g" -T "date=%y" -T "tracknumber=%n" -T "genre=%m" %s
TOC of the extracted CD
     Track |   Start  |  Length  | Start sector | End sector
    ---------------------------------------------------------
        1  |  0:00.00 |  2:12.50 |         0    |     9949
        2  |  2:12.50 |  2:24.44 |      9950    |    20793
        3  |  4:37.19 |  3:43.59 |     20794    |    37577
        4  |  8:21.03 |  4:40.36 |     37578    |    58613
        5  | 13:01.39 |  3:40.43 |     58614    |    75156
        6  | 16:42.07 |  5:22.49 |     75157    |    99355
        7  | 22:04.56 |  2:54.15 |     99356    |   112420
        8  | 24:58.71 |  2:24.06 |    112421    |   123226
        9  | 27:23.02 |  3:28.52 |    123227    |   138878
       10  | 30:51.54 |  2:42.55 |    138879    |   151083
       11  | 33:34.34 |  2:30.58 |    151084    |   162391
       12  | 36:05.17 |  2:11.64 |    162392    |   172280
       13  | 38:17.06 |  1:32.14 |    172281    |   179194
Track  1
     Filename D:\musica\eac\Ocean Colour Scene - 2007 - On The Leyline\01 - I Told You So.wav
     Pre-gap length  0:00:02.00
     Peak level 97.7 %
     Extraction speed 0.8 X
     Track quality 100.0 %
     Test CRC 5E73A88D
     Copy CRC 5E73A88D
     Accurately ripped (confidence 9)  [415DDA11]
     Copy OK
Track  2
     Filename D:\musica\eac\Ocean Colour Scene - 2007 - On The Leyline\02 - On The Leyline, Waiting.wav
     Pre-gap length  0:00:01.00
     Peak level 97.7 %
     Extraction speed 0.9 X
     Track quality 100.0 %
     Test CRC 1B9ABB69
     Copy CRC 1B9ABB69
     Accurately ripped (confidence 9)  [70AEC04A]
     Copy OK
Track  3
     Filename D:\musica\eac\Ocean Colour Scene - 2007 - On The Leyline\03 - For Dancers Only.wav
     Pre-gap length  0:00:01.00
     Peak level 97.7 %
     Extraction speed 0.9 X
     Track quality 99.9 %
     Test CRC 16D6EEA0
     Copy CRC 16D6EEA0
     Accurately ripped (confidence 9)  [41C69460]
     Copy OK
Track  4
     Filename D:\musica\eac\Ocean Colour Scene - 2007 - On The Leyline\04 - Man In The Middle.wav
     Pre-gap length  0:00:01.00
     Peak level 97.7 %
     Extraction speed 1.2 X
     Track quality 100.0 %
     Test CRC F2A8E81B
     Copy CRC F2A8E81B
     Accurately ripped (confidence 9)  [BA7C7203]
     Copy OK
Track  5
     Filename D:\musica\eac\Ocean Colour Scene - 2007 - On The Leyline\05 - I Just Got Over You.wav
     Pre-gap length  0:00:01.00
     Peak level 97.7 %
     Extraction speed 1.2 X
     Track quality 100.0 %
     Test CRC 1DAE55DA
     Copy CRC 1DAE55DA
     Accurately ripped (confidence 9)  [A38B93CF]
     Copy OK
Track  6
     Filename D:\musica\eac\Ocean Colour Scene - 2007 - On The Leyline\06 - Go To Sea.wav
     Pre-gap length  0:00:02.00
     Peak level 97.7 %
     Extraction speed 1.4 X
     Track quality 100.0 %
     Test CRC 8DAF10F4
     Copy CRC 8DAF10F4
     Accurately ripped (confidence 9)  [65EACE06]
     Copy OK
Track  7
     Filename D:\musica\eac\Ocean Colour Scene - 2007 - On The Leyline\07 - These Days I'm Tired.wav
     Pre-gap length  0:00:02.00
     Peak level 97.7 %
     Extraction speed 1.3 X
     Track quality 100.0 %
     Test CRC 3791AD25
     Copy CRC 3791AD25
     Accurately ripped (confidence 9)  [A3826DE7]
     Copy OK
Track  8
     Filename D:\musica\eac\Ocean Colour Scene - 2007 - On The Leyline\08 - You'll Never Find Me.wav
     Pre-gap length  0:00:02.00
     Peak level 97.7 %
     Extraction speed 1.3 X
     Track quality 100.0 %
     Test CRC BB07FB92
     Copy CRC BB07FB92
     Accurately ripped (confidence 9)  [742B45F3]
     Copy OK
Track  9
     Filename D:\musica\eac\Ocean Colour Scene - 2007 - On The Leyline\09 - Don't Get Me.wav
     Pre-gap length  0:00:02.00
     Peak level 97.7 %
     Extraction speed 1.4 X
     Track quality 100.0 %
     Test CRC 6FDFD48A
     Copy CRC 6FDFD48A
     Accurately ripped (confidence 9)  [CB5FBEBE]
     Copy OK
Track 10
     Filename D:\musica\eac\Ocean Colour Scene - 2007 - On The Leyline\10 - Loneliest Girl In The Whole Wide World.wav
     Pre-gap length  0:00:02.00
     Peak level 97.7 %
     Extraction speed 1.4 X
     Track quality 100.0 %
     Test CRC 6DCEFC4A
     Copy CRC 6DCEFC4A
     Accurately ripped (confidence 9)  [DE78790E]
     Copy OK
Track 11
     Filename D:\musica\eac\Ocean Colour Scene - 2007 - On The Leyline\11 - Mr Brown.wav
     Pre-gap length  0:00:02.00
     Peak level 97.7 %
     Extraction speed 1.1 X
     Track quality 99.9 %
     Test CRC 2067E6B4
     Copy CRC 2067E6B4
     Accurately ripped (confidence 9)  [DAA85943]
     Copy OK
Track 12
     Filename D:\musica\eac\Ocean Colour Scene - 2007 - On The Leyline\12 - Two Lovers.wav
     Pre-gap length  0:00:02.00
     Peak level 97.7 %
     Extraction speed 1.1 X
     Track quality 99.9 %
     Test CRC C697DBED
     Copy CRC C697DBED
     Accurately ripped (confidence 9)  [539BA2A1]
     Copy OK
Track 13
     Filename D:\musica\eac\Ocean Colour Scene - 2007 - On The Leyline\13 - Daylight.wav
     Pre-gap length  0:00:02.00
     Peak level 99.7 %
     Extraction speed 1.2 X
     Track quality 100.0 %
     Test CRC 75B15594
     Copy CRC 75B15594
     Accurately ripped (confidence 7)  [C7B12EB6]
     Copy OK
All tracks accurately ripped
No errors occurred
End of status report
Код:
REM GENRE Rock
REM DATE 2007
REM DISCID 9D09550D
REM COMMENT "ExactAudioCopy v1.0b1"
PERFORMER "Ocean Colour Scene"
TITLE "On The Leyline"
FILE "Ocean Colour Scene - 2007 - On The Leyline\01 - I Told You So.wav" WAVE
  TRACK 01 AUDIO
    TITLE "I Told You So"
    PERFORMER "Ocean Colour Scene"
    ISRC GBMMF0700001
    INDEX 01 00:00:00
  TRACK 02 AUDIO
    TITLE "On The Leyline, Waiting"
    PERFORMER "Ocean Colour Scene"
    ISRC GBMMF0700002
    INDEX 00 02:11:50
FILE "Ocean Colour Scene - 2007 - On The Leyline\02 - On The Leyline, Waiting.wav" WAVE
    INDEX 01 00:00:00
  TRACK 03 AUDIO
    TITLE "For Dancers Only"
    PERFORMER "Ocean Colour Scene"
    ISRC GBMMF0700003
    INDEX 00 02:23:44
FILE "Ocean Colour Scene - 2007 - On The Leyline\03 - For Dancers Only.wav" WAVE
    INDEX 01 00:00:00
  TRACK 04 AUDIO
    TITLE "Man In The Middle"
    PERFORMER "Ocean Colour Scene"
    ISRC GBMMF0700004
    INDEX 00 03:42:59
FILE "Ocean Colour Scene - 2007 - On The Leyline\04 - Man In The Middle.wav" WAVE
    INDEX 01 00:00:00
  TRACK 05 AUDIO
    TITLE "I Just Got Over You"
    PERFORMER "Ocean Colour Scene"
    ISRC GBMMF0700005
    INDEX 00 04:39:36
FILE "Ocean Colour Scene - 2007 - On The Leyline\05 - I Just Got Over You.wav" WAVE
    INDEX 01 00:00:00
  TRACK 06 AUDIO
    TITLE "Go To Sea"
    PERFORMER "Ocean Colour Scene"
    ISRC GBMMF0700006
    INDEX 00 03:38:43
FILE "Ocean Colour Scene - 2007 - On The Leyline\06 - Go To Sea.wav" WAVE
    INDEX 01 00:00:00
  TRACK 07 AUDIO
    TITLE "These Days I'm Tired"
    PERFORMER "Ocean Colour Scene"
    ISRC GBMMF0700007
    INDEX 00 05:20:49
FILE "Ocean Colour Scene - 2007 - On The Leyline\07 - These Days I'm Tired.wav" WAVE
    INDEX 01 00:00:00
  TRACK 08 AUDIO
    TITLE "You'll Never Find Me"
    PERFORMER "Ocean Colour Scene"
    ISRC GBMMF0700008
    INDEX 00 02:52:15
FILE "Ocean Colour Scene - 2007 - On The Leyline\08 - You'll Never Find Me.wav" WAVE
    INDEX 01 00:00:00
  TRACK 09 AUDIO
    TITLE "Don't Get Me"
    PERFORMER "Ocean Colour Scene"
    ISRC GBMMF0700009
    INDEX 00 02:22:06
FILE "Ocean Colour Scene - 2007 - On The Leyline\09 - Don't Get Me.wav" WAVE
    INDEX 01 00:00:00
  TRACK 10 AUDIO
    TITLE "Loneliest Girl In The Whole Wide World"
    PERFORMER "Ocean Colour Scene"
    ISRC GBMMF0700010
    INDEX 00 03:26:52
FILE "Ocean Colour Scene - 2007 - On The Leyline\10 - Loneliest Girl In The Whole Wide World.wav" WAVE
    INDEX 01 00:00:00
  TRACK 11 AUDIO
    TITLE "Mr Brown"
    PERFORMER "Ocean Colour Scene"
    ISRC GBMMF0700011
    INDEX 00 02:40:55
FILE "Ocean Colour Scene - 2007 - On The Leyline\11 - Mr Brown.wav" WAVE
    INDEX 01 00:00:00
  TRACK 12 AUDIO
    TITLE "Two Lovers"
    PERFORMER "Ocean Colour Scene"
    ISRC GBMMF0700012
    INDEX 00 02:28:58
FILE "Ocean Colour Scene - 2007 - On The Leyline\12 - Two Lovers.wav" WAVE
    INDEX 01 00:00:00
  TRACK 13 AUDIO
    TITLE "Daylight"
    PERFORMER "Ocean Colour Scene"
    ISRC GBMMF0700013
    INDEX 00 02:09:64
FILE "Ocean Colour Scene - 2007 - On The Leyline\13 - Daylight.wav" WAVE
    INDEX 01 00:00:00
Правила, инструкции, FAQ!!!
Торрент  Добавлен [26 мар 2019, 20:41] Скачать торрент Магнет ссылка
Скачать торрент
[ Размер 12.46 КБ / Просмотров 0 ]

Статус
Проверен 
 
Размер  284.37 МБ
Приватный: Нет (DHT включён)
.torrent скачан  0
 


     Отправить личное сообщение
   
Страница 1 из 1
Показать сообщения за:  Поле сортировки  
Начать новую тему Ответить на тему


Сейчас этот форум просматривают: нет зарегистрированных пользователей и гости: 0


Вы не можете начинать темы
Вы не можете отвечать на сообщения
Вы не можете редактировать свои сообщения
Вы не можете удалять свои сообщения
Вы не можете добавлять вложения

Перейти:  
cron