Начать новую тему Ответить на тему
Статистика раздачи
Размер: 318.21 МБ | Добавлен: 26 мар 2019, 20:41 | Скачали: 0
Сидеров: 0  [0 байт/сек]    Личеров: 0  [0 байт/сек]
Пред. тема | След. тема 

Автор
Сообщение

СообщениеДобавлено: 26 мар 2019, 20:41 

Ответить с цитатой 


Ocean Colour Scene / A Hyperactive Workout For The Flying Squad

Жанр: Brit Pop, Indie Rock
Страна-производитель диска: UK
Год издания диска: 2005
Издатель (лейбл): Sanctuary Records
Номер по каталогу: SANCD332
Страна: UK
Аудиокодек: FLAC (*.flac)
Тип рипа: tracks+.cue
Битрейт аудио: lossless
Продолжительность: 47:18
Источник (релизер): what.cd
Наличие сканов в содержимом раздачи: нет
Треклист:
01. Everything Comes At The Right Time (03:49)
02. Free My Name (02:42)
03. Wah Wah (03:32)
04. Drive Away (04:41)
05. I Love You (03:30)
06. This Day Should Last Forever (03:05)
07. Move Things Over (05:10)
08. Waving Not Drowning (03:20)
09. God's World (03:21)
10. Another Time To Stay (04:57)
11. Have You Got The Right (02:02)
12. Start Of The Day (03:46)
13. My Time (03:18)
Код:
Exact Audio Copy V1.0 beta 1 from 15. November 2010
EAC extraction logfile from 11. May 2011, 10:01
Ocean Colour Scene / A Hyperactive Workout For The Flying Squad
Used drive  : hp      DVD-ROM TS-H353C   Adapter: 3  ID: 0
Read mode               : Secure
Utilize accurate stream : Yes
Defeat audio cache      : Yes
Make use of C2 pointers : No
Read offset correction                      : 6
Overread into Lead-In and Lead-Out          : No
Fill up missing offset samples with silence : Yes
Delete leading and trailing silent blocks   : No
Null samples used in CRC calculations       : Yes
Used interface                              : Native Win32 interface for Win NT & 2000
Gap handling                                : Appended to previous track
Used output format              : User Defined Encoder
Selected bitrate                : 128 kBit/s
Quality                         : High
Add ID3 tag                     : No
Command line compressor         : C:\Program Files\Exact Audio Copy\Flac\flac.exe
Additional command line options : -V -8 -T "artist=%a" -T "title=%t" -T "album=%g" -T "date=%y" -T "tracknumber=%n" -T "genre=%m" %s
TOC of the extracted CD
     Track |   Start  |  Length  | Start sector | End sector
    ---------------------------------------------------------
        1  |  0:00.00 |  3:49.10 |         0    |    17184
        2  |  3:49.10 |  2:42.12 |     17185    |    29346
        3  |  6:31.22 |  3:32.20 |     29347    |    45266
        4  | 10:03.42 |  4:41.70 |     45267    |    66411
        5  | 14:45.37 |  3:30.58 |     66412    |    82219
        6  | 18:16.20 |  3:05.02 |     82220    |    96096
        7  | 21:21.22 |  5:10.18 |     96097    |   119364
        8  | 26:31.40 |  3:20.30 |    119365    |   134394
        9  | 29:51.70 |  3:21.60 |    134395    |   149529
       10  | 33:13.55 |  4:57.42 |    149530    |   171846
       11  | 38:11.22 |  2:02.00 |    171847    |   180996
       12  | 40:13.22 |  3:46.30 |    180997    |   197976
       13  | 43:59.52 |  3:18.33 |    197977    |   212859
Track  1
     Filename D:\MP3s\Rips\Ocean Colour Scene - 2005 - A Hyperactive Workout For The Flying Squad\Ocean Colour Scene - 01 - Everything Comes At The Right Time.wav
     Pre-gap length  0:00:02.00
     Peak level 99.9 %
     Extraction speed 2.2 X
     Track quality 99.9 %
     Test CRC BA148535
     Copy CRC BA148535
     Accurately ripped (confidence 2)  [5CDB838C]
     Copy OK
Track  2
     Filename D:\MP3s\Rips\Ocean Colour Scene - 2005 - A Hyperactive Workout For The Flying Squad\Ocean Colour Scene - 02 - Free My Name.wav
     Peak level 99.9 %
     Extraction speed 2.6 X
     Track quality 100.0 %
     Test CRC E6B7F278
     Copy CRC E6B7F278
     Accurately ripped (confidence 2)  [0895D6CF]
     Copy OK
Track  3
     Filename D:\MP3s\Rips\Ocean Colour Scene - 2005 - A Hyperactive Workout For The Flying Squad\Ocean Colour Scene - 03 - Wah Wah.wav
     Peak level 100.0 %
     Extraction speed 3.0 X
     Track quality 100.0 %
     Test CRC 25F35E2B
     Copy CRC 25F35E2B
     Accurately ripped (confidence 2)  [C72AC82E]
     Copy OK
Track  4
     Filename D:\MP3s\Rips\Ocean Colour Scene - 2005 - A Hyperactive Workout For The Flying Squad\Ocean Colour Scene - 04 - Drive Away.wav
     Peak level 99.9 %
     Extraction speed 3.0 X
     Track quality 99.9 %
     Test CRC 63E8622B
     Copy CRC 63E8622B
     Accurately ripped (confidence 2)  [61131CB7]
     Copy OK
Track  5
     Filename D:\MP3s\Rips\Ocean Colour Scene - 2005 - A Hyperactive Workout For The Flying Squad\Ocean Colour Scene - 05 - I Love You.wav
     Peak level 100.0 %
     Extraction speed 3.4 X
     Track quality 100.0 %
     Test CRC 012E6BC7
     Copy CRC 012E6BC7
     Accurately ripped (confidence 2)  [EBFC83DD]
     Copy OK
Track  6
     Filename D:\MP3s\Rips\Ocean Colour Scene - 2005 - A Hyperactive Workout For The Flying Squad\Ocean Colour Scene - 06 - This Day Should Last Forever.wav
     Pre-gap length  0:00:01.13
     Peak level 99.9 %
     Extraction speed 3.5 X
     Track quality 100.0 %
     Test CRC FA71E475
     Copy CRC FA71E475
     Accurately ripped (confidence 2)  [04B3175B]
     Copy OK
Track  7
     Filename D:\MP3s\Rips\Ocean Colour Scene - 2005 - A Hyperactive Workout For The Flying Squad\Ocean Colour Scene - 07 - Move Things Over.wav
     Peak level 99.9 %
     Extraction speed 4.0 X
     Track quality 100.0 %
     Test CRC A06256BF
     Copy CRC A06256BF
     Accurately ripped (confidence 2)  [344D83E2]
     Copy OK
Track  8
     Filename D:\MP3s\Rips\Ocean Colour Scene - 2005 - A Hyperactive Workout For The Flying Squad\Ocean Colour Scene - 08 - Waving Not Drowning.wav
     Peak level 99.9 %
     Extraction speed 4.0 X
     Track quality 100.0 %
     Test CRC 12084369
     Copy CRC 12084369
     Accurately ripped (confidence 2)  [51D2E48D]
     Copy OK
Track  9
     Filename D:\MP3s\Rips\Ocean Colour Scene - 2005 - A Hyperactive Workout For The Flying Squad\Ocean Colour Scene - 09 - God's World.wav
     Peak level 99.9 %
     Extraction speed 4.1 X
     Track quality 100.0 %
     Test CRC 86E50EDC
     Copy CRC 86E50EDC
     Accurately ripped (confidence 2)  [9F611784]
     Copy OK
Track 10
     Filename D:\MP3s\Rips\Ocean Colour Scene - 2005 - A Hyperactive Workout For The Flying Squad\Ocean Colour Scene - 10 - Another Time To Stay.wav
     Peak level 100.0 %
     Extraction speed 4.5 X
     Track quality 100.0 %
     Test CRC 09B8785F
     Copy CRC 09B8785F
     Accurately ripped (confidence 2)  [BC384140]
     Copy OK
Track 11
     Filename D:\MP3s\Rips\Ocean Colour Scene - 2005 - A Hyperactive Workout For The Flying Squad\Ocean Colour Scene - 11 - Have You Got The Right.wav
     Peak level 99.9 %
     Extraction speed 4.0 X
     Track quality 100.0 %
     Test CRC E45611E4
     Copy CRC E45611E4
     Accurately ripped (confidence 2)  [CB398B73]
     Copy OK
Track 12
     Filename D:\MP3s\Rips\Ocean Colour Scene - 2005 - A Hyperactive Workout For The Flying Squad\Ocean Colour Scene - 12 - Start Of The Day.wav
     Peak level 99.9 %
     Extraction speed 4.6 X
     Track quality 100.0 %
     Test CRC 569FEE1A
     Copy CRC 569FEE1A
     Accurately ripped (confidence 2)  [9C05D232]
     Copy OK
Track 13
     Filename D:\MP3s\Rips\Ocean Colour Scene - 2005 - A Hyperactive Workout For The Flying Squad\Ocean Colour Scene - 13 - My Time.wav
     Peak level 99.9 %
     Extraction speed 4.6 X
     Track quality 100.0 %
     Test CRC 2CBEF935
     Copy CRC 2CBEF935
     Accurately ripped (confidence 2)  [E9954A53]
     Copy OK
All tracks accurately ripped
No errors occurred
End of status report
Код:
REM GENRE Rock
REM DATE 2005
REM DISCID C00B160D
REM COMMENT "ExactAudioCopy v1.0b1"
FILE "Ocean Colour Scene - 01 - Everything Comes At The Right Time.wav" WAVE
  TRACK 01 AUDIO
    INDEX 01 00:00:00
FILE "Ocean Colour Scene - 02 - Free My Name.wav" WAVE
  TRACK 02 AUDIO
    INDEX 01 00:00:00
FILE "Ocean Colour Scene - 03 - Wah Wah.wav" WAVE
  TRACK 03 AUDIO
    INDEX 01 00:00:00
FILE "Ocean Colour Scene - 04 - Drive Away.wav" WAVE
  TRACK 04 AUDIO
    INDEX 01 00:00:00
FILE "Ocean Colour Scene - 05 - I Love You.wav" WAVE
  TRACK 05 AUDIO
    INDEX 01 00:00:00
  TRACK 06 AUDIO
    INDEX 00 03:29:48
FILE "Ocean Colour Scene - 06 - This Day Should Last Forever.wav" WAVE
    INDEX 01 00:00:00
FILE "Ocean Colour Scene - 07 - Move Things Over.wav" WAVE
  TRACK 07 AUDIO
    INDEX 01 00:00:00
FILE "Ocean Colour Scene - 08 - Waving Not Drowning.wav" WAVE
  TRACK 08 AUDIO
    INDEX 01 00:00:00
FILE "Ocean Colour Scene - 09 - God's World.wav" WAVE
  TRACK 09 AUDIO
    INDEX 01 00:00:00
FILE "Ocean Colour Scene - 10 - Another Time To Stay.wav" WAVE
  TRACK 10 AUDIO
    INDEX 01 00:00:00
FILE "Ocean Colour Scene - 11 - Have You Got The Right.wav" WAVE
  TRACK 11 AUDIO
    INDEX 01 00:00:00
FILE "Ocean Colour Scene - 12 - Start Of The Day.wav" WAVE
  TRACK 12 AUDIO
    INDEX 01 00:00:00
FILE "Ocean Colour Scene - 13 - My Time.wav" WAVE
  TRACK 13 AUDIO
    INDEX 01 00:00:00
Правила, инструкции, FAQ!!!
Торрент  Добавлен [26 мар 2019, 20:41] Скачать торрент Магнет ссылка
Скачать торрент
[ Размер 14.05 КБ / Просмотров 1 ]

Статус
Проверен 
 
Размер  318.21 МБ
Приватный: Нет (DHT включён)
.torrent скачан  0
 


     Отправить личное сообщение
   
Страница 1 из 1
Показать сообщения за:  Поле сортировки  
Начать новую тему Ответить на тему


Сейчас этот форум просматривают: нет зарегистрированных пользователей и гости: 0


Вы не можете начинать темы
Вы не можете отвечать на сообщения
Вы не можете редактировать свои сообщения
Вы не можете удалять свои сообщения
Вы не можете добавлять вложения

Перейти:  
cron