Начать новую тему Ответить на тему
Статистика раздачи
Размер: 454 МБ | Добавлен: 26 мар 2019, 19:59 | Скачали: 0
Сидеров: 1  [0 байт/сек]    Личеров: 0  [0 байт/сек]
Пред. тема | След. тема 

Автор
Сообщение

СообщениеДобавлено: 26 мар 2019, 19:59 

Ответить с цитатой 

Hurricane #1 / Only the Strongest Will Survive
Жанр: Brit Pop
Страна-производитель диска: UK
Год издания диска: 1999
Издатель (лейбл): Creation Records
Страна: UK
Аудиокодек: FLAC (*.flac)
Тип рипа: tracks+.cue
Битрейт аудио: lossless
Продолжительность: 74:52
Источник (релизер): CD
Наличие сканов в содержимом раздачи: нет
Треклист:
1. Intro
2. N.Y.C.
3. The Greatest High
4. Remote Control
5. The Price That We Pay
6. Separation Sunday
7. Rising Sign
8. Only The Strongest Will Survive
9. Long Way Down
10. Twilight World
11. Come Alive
12. What Do I Know?
13. Afterhours
14. Outro/N.Y.C.2
Код:
Exact Audio Copy V1.0 beta 3 from 29. August 2011
Отчёт EAC об извлечении, выполненном 6. марта 2012, 19:25
Hurricane #1 / Only The Strongest Will Survive
Дисковод: _NEC    DVD_RW ND-3550A   Adapter: 0  ID: 0
Режим чтения                 : Достоверность
Использование точного потока : Да
Отключение кэша аудио        : Да
Использование указателей C2  : Нет
Коррекция смещения при чтении                     : 48
Способность читать области Lead-in и Lead-out     : Да
Заполнение пропущенных сэмплов тишиной            : Да
Удаление блоков с тишиной в начале и конце        : Нет
При вычислениях CRC использовались нулевые сэмплы : Да
Интерфейс                                         : Встроенный Win32-интерфейс для Win NT/2000
Обработка зазоров                                 : Добавлено к предыдущему треку
Выходной формат          : Пользовательский кодировщик
Выбранный битрейт        : 128 kBit/s
Качество                 : Высокий
Добавление ID3-тега      : Нет
Утилита сжатия           : C:\Program Files (x86)\Exact Audio Copy\Flac\flac.exe
Дополнительные параметры : -V -8 -T "Genre=%genre%" -T "Artist=%artist%" -T "Title=%title%" -T "Album=%albumtitle%" -T "Date=%year%" -T "Tracknumber=%tracknr%" -T "Comment=%comment%" %source%
TOC извлечённого CD
     Трек |   Старт  | Длительность | Начальный сектор | Конечный сектор
    ---------------------------------------------------------------------
       1  |  0:00.00 |    1:54.30   |           0      |       8579
       2  |  1:54.30 |    4:06.72   |        8580      |      27101
       3  |  6:01.27 |    3:58.23   |       27102      |      44974
       4  |  9:59.50 |    4:47.47   |       44975      |      66546
       5  | 14:47.22 |    3:16.38   |       66547      |      81284
       6  | 18:03.60 |    5:33.45   |       81285      |     106304
       7  | 23:37.30 |    7:02.07   |      106305      |     137961
       8  | 30:39.37 |    4:43.48   |      137962      |     159234
       9  | 35:23.10 |    6:39.47   |      159235      |     189206
      10  | 42:02.57 |    3:59.18   |      189207      |     207149
      11  | 46:02.00 |    4:05.05   |      207150      |     225529
      12  | 50:07.05 |    3:58.65   |      225530      |     243444
      13  | 54:05.70 |    6:00.55   |      243445      |     270499
      14  | 60:06.50 |   14:45.57   |      270500      |     336931
Трек  1
     Имя файла C:\Users\Сергей\Desktop\Only the Strongest Will Survive\01. Intro.wav
     Длина предзазора  0:00:02.00
     Пиковый уровень 98.0 %
     Скорость извлечения 4.0 X
     Качество трека 100.0 %
     CRC теста 3FCCCB2F
     CRC копии 3FCCCB2F
     Точное извлечение (достоверность 6)  [AFDB540A]  (AR v1)
     Копирование... OK
Трек  2
     Имя файла C:\Users\Сергей\Desktop\Only the Strongest Will Survive\02. N.Y.C..wav
     Длина предзазора  0:00:00.58
     Пиковый уровень 98.0 %
     Скорость извлечения 4.4 X
     Качество трека 99.9 %
     CRC теста FE235D9F
     CRC копии FE235D9F
     Точное извлечение (достоверность 6)  [B1F031A1]  (AR v1)
     Копирование... OK
Трек  3
     Имя файла C:\Users\Сергей\Desktop\Only the Strongest Will Survive\03. The Greatest High.wav
     Длина предзазора  0:00:00.27
     Пиковый уровень 98.0 %
     Скорость извлечения 5.4 X
     Качество трека 100.0 %
     CRC теста C4F19AE7
     CRC копии C4F19AE7
     Точное извлечение (достоверность 6)  [58FCC07A]  (AR v1)
     Копирование... OK
Трек  4
     Имя файла C:\Users\Сергей\Desktop\Only the Strongest Will Survive\04. Remote Control.wav
     Длина предзазора  0:00:00.70
     Пиковый уровень 98.0 %
     Скорость извлечения 6.0 X
     Качество трека 100.0 %
     CRC теста EAE7717C
     CRC копии EAE7717C
     Точное извлечение (достоверность 6)  [A4BD31C0]  (AR v1)
     Копирование... OK
Трек  5
     Имя файла C:\Users\Сергей\Desktop\Only the Strongest Will Survive\05. The Price That We Pay.wav
     Длина предзазора  0:00:00.67
     Пиковый уровень 73.2 %
     Скорость извлечения 5.2 X
     Качество трека 99.9 %
     CRC теста 10A850CE
     CRC копии 10A850CE
     Точное извлечение (достоверность 6)  [5B15B3E3]  (AR v1)
     Копирование... OK
Трек  6
     Имя файла C:\Users\Сергей\Desktop\Only the Strongest Will Survive\06. Separation Sunday.wav
     Пиковый уровень 98.0 %
     Скорость извлечения 6.9 X
     Качество трека 100.0 %
     CRC теста 13903579
     CRC копии 13903579
     Точное извлечение (достоверность 6)  [13637A1E]  (AR v1)
     Копирование... OK
Трек  7
     Имя файла C:\Users\Сергей\Desktop\Only the Strongest Will Survive\07. Rising Sign.wav
     Длина предзазора  0:00:00.43
     Пиковый уровень 98.0 %
     Скорость извлечения 7.5 X
     Качество трека 100.0 %
     CRC теста 1D0D3380
     CRC копии 1D0D3380
     Точное извлечение (достоверность 6)  [2E1F769A]  (AR v1)
     Копирование... OK
Трек  8
     Имя файла C:\Users\Сергей\Desktop\Only the Strongest Will Survive\08. Only The Strongest Will Survive.wav
     Длина предзазора  0:00:00.45
     Пиковый уровень 98.0 %
     Скорость извлечения 7.6 X
     Качество трека 100.0 %
     CRC теста 55B11CAD
     CRC копии 55B11CAD
     Точное извлечение (достоверность 5)  [3152AD47]  (AR v1)
     Копирование... OK
Трек  9
     Имя файла C:\Users\Сергей\Desktop\Only the Strongest Will Survive\09. Long Way Down.wav
     Длина предзазора  0:00:00.35
     Пиковый уровень 98.0 %
     Скорость извлечения 8.3 X
     Качество трека 100.0 %
     CRC теста 1F288740
     CRC копии 1F288740
     Точное извлечение (достоверность 6)  [BD0EE82D]  (AR v1)
     Копирование... OK
Трек 10
     Имя файла C:\Users\Сергей\Desktop\Only the Strongest Will Survive\10. Twilight World.wav
     Длина предзазора  0:00:00.67
     Пиковый уровень 98.0 %
     Скорость извлечения 8.1 X
     Качество трека 100.0 %
     CRC теста 7BF9C55F
     CRC копии 7BF9C55F
     Точное извлечение (достоверность 6)  [3C743829]  (AR v1)
     Копирование... OK
Трек 11
     Имя файла C:\Users\Сергей\Desktop\Only the Strongest Will Survive\11. Come Alive.wav
     Длина предзазора  0:00:00.50
     Пиковый уровень 98.0 %
     Скорость извлечения 8.4 X
     Качество трека 100.0 %
     CRC теста 5DDAE558
     CRC копии 5DDAE558
     Точное извлечение (достоверность 6)  [7B924E08]  (AR v1)
     Копирование... OK
Трек 12
     Имя файла C:\Users\Сергей\Desktop\Only the Strongest Will Survive\12. What Do I Know.wav
     Длина предзазора  0:00:00.53
     Пиковый уровень 98.0 %
     Скорость извлечения 8.6 X
     Качество трека 100.0 %
     CRC теста 270FFBC9
     CRC копии 270FFBC9
     Точное извлечение (достоверность 6)  [5954FDDA]  (AR v1)
     Копирование... OK
Трек 13
     Имя файла C:\Users\Сергей\Desktop\Only the Strongest Will Survive\13. Afterhours.wav
     Копирование прервано
Трек 14
     Имя файла C:\Users\Сергей\Desktop\Only the Strongest Will Survive\14. N.Y.C.2.wav
     Длина предзазора  0:00:00.28
     Пиковый уровень 98.0 %
     Скорость извлечения 5.9 X
     Качество трека 99.9 %
     CRC теста 8662804B
     CRC копии 88289D9D
     Точное извлечение (достоверность 6)  [03C85A7F]  (AR v1)
     Копирование... OK
13 трек(и) скопированы точно
 1 трек(и) отменены
Некоторые треки не прошли проверку на точность
Были ошибки
Конец отчёта
==== Контрольная сумма отчёта 71BE9616788F3425F73725F4CCBA3F76D4ABF4DF642EB7B88FF83F3D4EC18E09 ====
------------------------------------------------------------
Exact Audio Copy V1.0 beta 3 from 29. August 2011
Отчёт EAC об извлечении, выполненном 6. марта 2012, 19:38
Hurricane #1 / Only The Strongest Will Survive
Дисковод: _NEC    DVD_RW ND-3550A   Adapter: 0  ID: 0
Режим чтения                 : Достоверность
Использование точного потока : Да
Отключение кэша аудио        : Да
Использование указателей C2  : Нет
Коррекция смещения при чтении                     : 48
Способность читать области Lead-in и Lead-out     : Да
Заполнение пропущенных сэмплов тишиной            : Да
Удаление блоков с тишиной в начале и конце        : Нет
При вычислениях CRC использовались нулевые сэмплы : Да
Интерфейс                                         : Встроенный Win32-интерфейс для Win NT/2000
Обработка зазоров                                 : Добавлено к предыдущему треку
Выходной формат          : Пользовательский кодировщик
Выбранный битрейт        : 128 kBit/s
Качество                 : Высокий
Добавление ID3-тега      : Нет
Утилита сжатия           : C:\Program Files (x86)\Exact Audio Copy\Flac\flac.exe
Дополнительные параметры : -V -8 -T "Genre=%genre%" -T "Artist=%artist%" -T "Title=%title%" -T "Album=%albumtitle%" -T "Date=%year%" -T "Tracknumber=%tracknr%" -T "Comment=%comment%" %source%
TOC извлечённого CD
     Трек |   Старт  | Длительность | Начальный сектор | Конечный сектор
    ---------------------------------------------------------------------
       1  |  0:00.00 |    1:54.30   |           0      |       8579
       2  |  1:54.30 |    4:06.72   |        8580      |      27101
       3  |  6:01.27 |    3:58.23   |       27102      |      44974
       4  |  9:59.50 |    4:47.47   |       44975      |      66546
       5  | 14:47.22 |    3:16.38   |       66547      |      81284
       6  | 18:03.60 |    5:33.45   |       81285      |     106304
       7  | 23:37.30 |    7:02.07   |      106305      |     137961
       8  | 30:39.37 |    4:43.48   |      137962      |     159234
       9  | 35:23.10 |    6:39.47   |      159235      |     189206
      10  | 42:02.57 |    3:59.18   |      189207      |     207149
      11  | 46:02.00 |    4:05.05   |      207150      |     225529
      12  | 50:07.05 |    3:58.65   |      225530      |     243444
      13  | 54:05.70 |    6:00.55   |      243445      |     270499
      14  | 60:06.50 |   14:45.57   |      270500      |     336931
Трек 13
     Имя файла C:\Users\Сергей\Desktop\Only the Strongest Will Survive\13. Afterhours.wav
     Пиковый уровень 98.0 %
     Скорость извлечения 9.3 X
     Качество трека 100.0 %
     CRC теста 68E168D5
     CRC копии 68E168D5
     Точное извлечение (достоверность 6)  [79BF31F2]  (AR v1)
     Копирование... OK
Трек 14
     Имя файла C:\Users\Сергей\Desktop\Only the Strongest Will Survive\14. N.Y.C.2.wav
     Длина предзазора  0:00:00.28
     Пиковый уровень 98.0 %
     Скорость извлечения 10.6 X
     Качество трека 99.9 %
     CRC теста 8662804B
     CRC копии 8662804B
     Точное извлечение (достоверность 6)  [03C85A7F]  (AR v1)
     Копирование... OK
Все треки извлечены точно
Ошибок не произошло
Конец отчёта
==== Контрольная сумма отчёта 05860AD3259B18F4184F8584F361479102A83C028CFEBCC6B63C184EB0DD4443 ====
Код:
REM GENRE Indie
REM DATE 1999
REM DISCID B8118C0E
REM COMMENT "ExactAudioCopy v1.0b3"
CATALOG 0000000000000
PERFORMER "Hurricane #1"
TITLE "Only The Strongest Will Survive"
FILE "01. Intro.wav" WAVE
  TRACK 01 AUDIO
    TITLE "Intro"
    PERFORMER "Hurricane #1"
    ISRC GBAAW9900025
    INDEX 01 00:00:00
  TRACK 02 AUDIO
    TITLE "N.Y.C."
    PERFORMER "Hurricane #1"
    ISRC 000000000000
    INDEX 00 01:53:47
FILE "02. N.Y.C..wav" WAVE
    INDEX 01 00:00:00
  TRACK 03 AUDIO
    TITLE "The Greatest High"
    PERFORMER "Hurricane #1"
    ISRC GBAAW9900027
    INDEX 00 04:06:45
FILE "03. The Greatest High.wav" WAVE
    INDEX 01 00:00:00
  TRACK 04 AUDIO
    TITLE "Remote Control"
    PERFORMER "Hurricane #1"
    ISRC GBAAW9900028
    INDEX 00 03:57:28
FILE "04. Remote Control.wav" WAVE
    INDEX 01 00:00:00
  TRACK 05 AUDIO
    TITLE "The Price That We Pay"
    PERFORMER "Hurricane #1"
    ISRC GBAAW9900029
    INDEX 00 04:46:55
FILE "05. The Price That We Pay.wav" WAVE
    INDEX 01 00:00:00
FILE "06. Separation Sunday.wav" WAVE
  TRACK 06 AUDIO
    TITLE "Separation Sunday"
    PERFORMER "Hurricane #1"
    ISRC GBAAW9900030
    INDEX 01 00:00:00
  TRACK 07 AUDIO
    TITLE "Rising Sign"
    PERFORMER "Hurricane #1"
    ISRC GBAAW9900031
    INDEX 00 05:33:02
FILE "07. Rising Sign.wav" WAVE
    INDEX 01 00:00:00
  TRACK 08 AUDIO
    TITLE "Only The Strongest Will Survive"
    PERFORMER "Hurricane #1"
    ISRC GBAAW9900032
    INDEX 00 07:01:37
FILE "08. Only The Strongest Will Survive.wav" WAVE
    INDEX 01 00:00:00
  TRACK 09 AUDIO
    TITLE "Long Way Down"
    PERFORMER "Hurricane #1"
    ISRC GBAAW9900033
    INDEX 00 04:43:13
FILE "09. Long Way Down.wav" WAVE
    INDEX 01 00:00:00
  TRACK 10 AUDIO
    TITLE "Twilight World"
    PERFORMER "Hurricane #1"
    ISRC GBAAW9900034
    INDEX 00 06:38:55
FILE "10. Twilight World.wav" WAVE
    INDEX 01 00:00:00
  TRACK 11 AUDIO
    TITLE "Come Alive"
    PERFORMER "Hurricane #1"
    ISRC GBAAW9900035
    INDEX 00 03:58:43
FILE "11. Come Alive.wav" WAVE
    INDEX 01 00:00:00
  TRACK 12 AUDIO
    TITLE "What Do I Know?"
    PERFORMER "Hurricane #1"
    ISRC GBAAW9900036
    INDEX 00 04:04:27
FILE "12. What Do I Know.wav" WAVE
    INDEX 01 00:00:00
FILE "13. Afterhours.wav" WAVE
  TRACK 13 AUDIO
    TITLE "Afterhours"
    PERFORMER "Hurricane #1"
    ISRC GBAAW9900037
    INDEX 01 00:00:00
  TRACK 14 AUDIO
    TITLE "N.Y.C.2"
    PERFORMER "Hurricane #1"
    ISRC GBAAW9900038
    INDEX 00 06:00:27
FILE "14. N.Y.C.2.wav" WAVE
    INDEX 01 00:00:00
Доп. информация: Alex Lowe: lead vocals
Andy Bell: guitars, keyboards, backing vocals
Will Pepper: bass
Gareth Farmer: drums
Steve Sidelnyck: programming, percussion
Ian 'Mac' McClagan: hammond, wurlitzer, piano, clavinet
Idha: backing vocals on "Afterhours"
Engineered by Stephen Harris
Hurricane #1 - Hurricane #1 (1997) http://rutracker.org/forum/viewtopic.php?t=3964027
Правила, инструкции, FAQ!!!
Торрент  Добавлен [26 мар 2019, 19:59] Скачать торрент Магнет ссылка
Скачать торрент
[ Размер 19.13 КБ / Просмотров 5 ]

Статус
Проверен 
 
Размер  454 МБ
Приватный: Нет (DHT включён)
.torrent скачан  0
 


     Отправить личное сообщение
   
Страница 1 из 1
Показать сообщения за:  Поле сортировки  
Начать новую тему Ответить на тему


Сейчас этот форум просматривают: нет зарегистрированных пользователей и гости: 0


Вы не можете начинать темы
Вы не можете отвечать на сообщения
Вы не можете редактировать свои сообщения
Вы не можете удалять свои сообщения
Вы не можете добавлять вложения

Перейти:  
cron