Начать новую тему Ответить на тему
Статистика раздачи
Размер: 211.09 МБ | Добавлен: 26 мар 2019, 19:33 | Скачали: 0
Сидеров: 0  [0 байт/сек]    Личеров: 0  [0 байт/сек]
Пред. тема | След. тема 

Автор
Сообщение

СообщениеДобавлено: 26 мар 2019, 19:33 

Ответить с цитатой 

Roberto Carlos ("Ana")
Жанр: Brazilian pop rock, MPB
Год выпуска диска: 1996
Производитель диска: Brasil
Аудио кодек: APE
Тип рипа: image+.cue
Битрейт аудио: lossless
Продолжительность: 41:14
Трэклист:
1. Ana (R. Carlos/Erasmo Carlos)
2. Uma Palavra Amiga (Gertulio Cortes)
3. Vista A Roupa Meu Bem (R. Carlos/E. Carlos)
4. Meu Pequeno Cachoeiro (Raul Sampaio)
5. O Astronauta (Edson Ribeiro/Helena dos Santos)
6. Se Eu Pudesse Voltar No Tempo (Pedro Paulo/Luis Carlos Ismail)
7. Preciso Lhe Encontrar (Demetrius)
8. Minha Senhora (R. Carlos/E. Carlos)
9. Jesus Cristo (R. Carlos/E. Carlos)
10. Pra Você (Silvio Cezar)
11. 120...150...200 Km Por Hora (R. Carlos/E. Carlos)
12. Maior Que O Meu Amor (Renato Barros)
Доп. информация: Оригинальный релиз пластинки 1970 г. Columbia Rec., CBS
Roberto Carlos Braga - родился 19 апреля 1941 г. в Cachoeiro do Itapemirim, Espírito Santo, Бразилия.
официальный сайт (на португал.) http://robertocarlos.globo.com/html/home/home.php
неофициальный сайт (на португал.) http://www.clubedorei.com.br
Скажу только интересный факт: первая команда, собранная еще в 50-е, была названием связана с модным тогда словом "спутник" (Совок постарался :)), как и другие команды с этим словом (самые известные - The Sputniks). После стиль менялся на более мягкий и романтический, команды-то не было. А космическая эйфория тогда еще присутствовала, песня №5 на этом альбоме посвящена Юрию Алексеевичу Гагарину, и это таки правда
После сентября 75 года и выступления на Венецианском фестивале "Festival Gondola d'Oro" последовал ряд пластинок итальянских очень известных исполнителей с песнями Р. К., в частности Iva Zanicchi (известна советским слушателям по песне Non pensare a me - Не думай обо мне, Shiorilli - у нас написали Чиорелли - в исполнении М. Магомаева) спела Testarda io и др. песни. Их симбиоз вылился в великолепное и популярное явление (как и все, что делали эти люди).
не относящийся к музыке, но известный факт: Р. К. был malagamba (человек со сломанной ногой) - в возрасте 6 лет у него была ампутирована часть левой ноги.
Exact Audio Copy V0.99 prebeta 4 from 23. January 2008
Отчёт EAC об извлечении, выполненном 27. апреля 2009, 15:55
Roberto Carlos / Roberto Carlos 1970
Дисковод: HL-DT-STDVD-RAM GSA-H55N Adapter: 0 ID: 1
Режим чтения : Достоверность
Использование точного потока : Да
Отключение кэша аудио : Да
Использование указателей C2 : Нет
Коррекция смещения при чтении : 102
Способность читать области Lead-in и Lead-out : Нет
Заполнение пропущенных сэмплов тишиной : Да
Удаление блоков с тишиной в начале и конце : Нет
При вычислениях CRC использовались нулевые сэмплы : Да
Интерфейс : Установленный внешний ASPI-интерфейс
Выходной формат : Внутренние WAV-операции
Формат сэмплов : 44.100 Гц; 16 бит; стерео
TOC извлечённого CD
Трек | Старт | Длительность | Начальный сектор | Конечный сектор
---------------------------------------------------------------------
1 | 0:00.00 | 3:09.72 | 0 | 14246
2 | 3:09.72 | 2:57.03 | 14247 | 27524
3 | 6:07.00 | 2:44.42 | 27525 | 39866
4 | 8:51.42 | 3:53.28 | 39867 | 57369
5 | 12:44.70 | 4:54.55 | 57370 | 79474
6 | 17:39.50 | 2:51.40 | 79475 | 92339
7 | 20:31.15 | 3:14.65 | 92340 | 106954
8 | 23:46.05 | 3:08.27 | 106955 | 121081
9 | 26:54.32 | 3:27.03 | 121082 | 136609
10 | 30:21.35 | 3:16.12 | 136610 | 151321
11 | 33:37.47 | 4:36.58 | 151322 | 172079
12 | 38:14.30 | 3:00.32 | 172080 | 185611
Характеристики диапазона извлечения и сообщения об ошибках
Выбранный диапазон
Имя файла D:\-\Music\ТОРРЕНТ\RCarlos\Roberto Carlos - Roberto Carlos 1970.wav
Пиковый уровень 100.0 %
Качество диапазона 100.0 %
CRC копии 12BDA94B
Копирование... OK
Ошибок не произошло
Конец отчёта
данный рип сделан с записи на CD-R. В свою очередь копия на CD-R была сделана с фирменного диска в магазине "Трансильвания". Диск не имеет видимых физических повреждений, проигрывается любым типом проигрывателя
спасибо за "спасибо"!
Правила, инструкции, FAQ!!!
Торрент  Добавлен [26 мар 2019, 19:33] Скачать торрент Магнет ссылка
Скачать торрент
[ Размер 33.75 КБ / Просмотров 2 ]

Статус
Проверен 
 
Размер  211.09 МБ
Приватный: Нет (DHT включён)
.torrent скачан  0
 


     Отправить личное сообщение
   
Страница 1 из 1
Показать сообщения за:  Поле сортировки  
Начать новую тему Ответить на тему


Сейчас этот форум просматривают: нет зарегистрированных пользователей и гости: 0


Вы не можете начинать темы
Вы не можете отвечать на сообщения
Вы не можете редактировать свои сообщения
Вы не можете удалять свои сообщения
Вы не можете добавлять вложения

Перейти:  
cron