Начать новую тему Ответить на тему
Статистика раздачи
Размер: 401.78 МБ | Добавлен: 26 мар 2019, 19:34 | Скачали: 0
Сидеров: 1  [0 байт/сек]    Личеров: 0  [0 байт/сек]
Пред. тема | След. тема 

Автор
Сообщение

СообщениеДобавлено: 26 мар 2019, 19:34 

Ответить с цитатой 

Capital Inicial - Acustico MTV (MTV Unplugged)
Жанр: Pop Rock
Год выпуска диска: 2000
Производитель диска: Abril Music (Sonopress) - 1107036-2 - Brazil
Аудио кодек: FLAC
Тип рипа: image+.cue
Битрейт аудио: lossless
Продолжительность: 55:02
Трэклист:
1 - O Passageiro
2 - O Mundo
3 - Todas As Noites
4 - Tudo Que Vai
5 - Independência
6 - Leve Desespero
7 - Eu Vou Estar
8 - Primeiros Erros
9 - Cai A Noite
10 - Natasha
11 - Fogo
12 - Fátima
13 - Veraneio Vascaína
14 - Música Urbana
Exact Audio Copy V0.99 prebeta 5 from 4. May 2009
EAC extraction logfile from 30. August 2009, 20:26
Capital Inicial / Acústico MTV
Used drive : HL-DT-STDVDRAM GH20NS15 Adapter: 0 ID: 0
Read mode : Fast
Read offset correction : 667
Overread into Lead-In and Lead-Out : No
Fill up missing offset samples with silence : Yes
Delete leading and trailing silent blocks : No
Null samples used in CRC calculations : Yes
Used interface : Installed external ASPI interface
Used output format : User Defined Encoder
Selected bitrate : 1024 kBit/s
Quality : High
Add ID3 tag : No
Command line compressor : C:\Program Files\Exact Audio Copy\Flac\flac.exe
Additional command line options : -8 -A tukey(0.25) -A gauss(0.1875) -b 4096 -V -T "artist=%a" -T "title=%t" -T "album=%g" -T "date=%y" -T "tracknumber=%n" -T "genre=%m" %s --sector-align
TOC of the extracted CD
Track | Start | Length | Start sector | End sector
---------------------------------------------------------
1 | 0:00.00 | 4:39.20 | 0 | 20944
2 | 4:39.20 | 4:13.47 | 20945 | 39966
3 | 8:52.67 | 4:32.15 | 39967 | 60381
4 | 13:25.07 | 3:56.58 | 60382 | 78139
5 | 17:21.65 | 3:56.30 | 78140 | 95869
6 | 21:18.20 | 3:51.45 | 95870 | 113239
7 | 25:09.65 | 3:33.57 | 113240 | 129271
8 | 28:43.47 | 4:04.15 | 129272 | 147586
9 | 32:47.62 | 3:14.65 | 147587 | 162201
10 | 36:02.52 | 3:13.40 | 162202 | 176716
11 | 39:16.17 | 4:57.40 | 176717 | 199031
12 | 44:13.57 | 3:47.48 | 199032 | 216104
13 | 48:01.30 | 2:47.27 | 216105 | 228656
14 | 50:48.57 | 4:13.29 | 228657 | 247660
Range status and errors
Selected range
Filename D:\Torrents.ru 2\Capital Inicial\Capital Inicial - Acústico MTV\Capital Inicial - Acústico MTV.wav
Peak level 100.0 %
Range quality 100.0%
Test CRC A1ABDDB8
Copy CRC A1ABDDB8
Copy OK
No errors occurred
AccurateRip summary
Track 1 not present in database
Track 2 not present in database
Track 3 not present in database
Track 4 not present in database
Track 5 not present in database
Track 6 not present in database
Track 7 not present in database
Track 8 not present in database
Track 9 not present in database
Track 10 not present in database
Track 11 not present in database
Track 12 not present in database
Track 13 not present in database
Track 14 not present in database
None of the tracks are present in the AccurateRip database
End of status report
AUDIOCHECKER v2.0 beta (build 457) - by Dester - opdester@freemail.hu
~~~~~~~~~~~~~~~~~~~~~~~~~~~~~~~~~~
-=== DO NOT EDIT THIS FILE! ===-
Path: ...\Capital Inicial - Acústico MTV
1 -=- Capital Inicial - Acústico MTV.flac -=- CDDA (100%)
182555108


Правила, инструкции, FAQ!!!
Торрент  Добавлен [26 мар 2019, 19:34] Скачать торрент Магнет ссылка
Скачать торрент
[ Размер 32.49 КБ / Просмотров 0 ]

Статус
Проверен 
 
Размер  401.78 МБ
Приватный: Нет (DHT включён)
.torrent скачан  0
 


     Отправить личное сообщение
   
Страница 1 из 1
Показать сообщения за:  Поле сортировки  
Начать новую тему Ответить на тему


Сейчас этот форум просматривают: нет зарегистрированных пользователей и гости: 0


Вы не можете начинать темы
Вы не можете отвечать на сообщения
Вы не можете редактировать свои сообщения
Вы не можете удалять свои сообщения
Вы не можете добавлять вложения

Перейти:  
cron