Начать новую тему Ответить на тему
Статистика раздачи
Размер: 471.69 МБ | Добавлен: 26 мар 2019, 20:26 | Скачали: 0
Сидеров: 0  [0 байт/сек]    Личеров: 0  [0 байт/сек]
Пред. тема | След. тема 

Автор
Сообщение

СообщениеДобавлено: 26 мар 2019, 20:26 

Ответить с цитатой 

Joe Cocker- Star Series(Nostalgi planet)
Жанр: блюз
Год выпуска диска: 2000
Производитель диска: россия
Аудио кодек: APE
Тип рипа: image+.cue
Битрейт аудио: lossless
Продолжительность: 77:24
Трэклист:
1. Unchain my heart 5:06
2. Now that the magic has gone 4:40
3.Shelter me 4:20
4. On nights of sin 3:14
5.Now that you're gone 4:40
6. Pleaseno more 5:29
7. Fever 3:39
8. Have a little faith in me 4:40
9. Soul time 4:35
10. Up where we belong 3:54
11. Woman to woman 4:31
12. Five woman 5:35
13. With a little help from my friends 9:27
14. Angeline 4:30
15. Feeling Alright 4:13
16. High time we went 4:27
Доп. информация: Доп. информация: Компакт диск изготовлен в 2000г компанией LANDY STAR MUSIC.
лиц. соглашение с РАО. BP/044/2000/.РАЗ.1235/01/
Exact Audio Copy V0.99 prebeta 4 from 23. January 2008
Отчёт EAC об извлечении, выполненном 28. марта 2009, 14:09
Joe Cocker / Joe Cocker star series
Дисковод: Optiarc DVD RW AD-7173A Adapter: 0 ID: 0
Режим чтения : Достоверность
Использование точного потока : Да
Отключение кэша аудио : Да
Использование указателей C2 : Нет
Коррекция смещения при чтении : 48
Способность читать области Lead-in и Lead-out : Нет
Заполнение пропущенных сэмплов тишиной : Да
Удаление блоков с тишиной в начале и конце : Нет
При вычислениях CRC использовались нулевые сэмплы : Да
Интерфейс : Установленный внешний ASPI-интерфейс
Выходной формат : Внутренние WAV-операции
Формат сэмплов : 44.100 Гц; 16 бит; стерео
TOC извлечённого CD
Трек | Старт | Длительность | Начальный сектор | Конечный сектор
---------------------------------------------------------------------
1 | 0:00.00 | 5:09.32 | 0 | 23206
2 | 5:09.32 | 4:41.48 | 23207 | 44329
3 | 9:51.05 | 4:24.63 | 44330 | 64192
4 | 14:15.68 | 3:17.25 | 64193 | 78992
5 | 17:33.18 | 4:20.60 | 78993 | 98552
6 | 21:54.03 | 5:32.50 | 98553 | 123502
7 | 27:26.53 | 3:42.12 | 123503 | 140164
8 | 31:08.65 | 4:44.50 | 140165 | 161514
9 | 35:53.40 | 4:39.50 | 161515 | 182489
10 | 40:33.15 | 3:56.25 | 182490 | 200214
11 | 44:29.40 | 4:34.02 | 200215 | 220766
12 | 49:03.42 | 5:39.25 | 220767 | 246216
13 | 54:42.67 | 9:23.69 | 246217 | 288510
14 | 64:06.61 | 4:35.50 | 288511 | 309185
15 | 68:42.36 | 4:12.48 | 309186 | 328133
16 | 72:55.09 | 4:29.33 | 328134 | 348341
Характеристики диапазона извлечения и сообщения об ошибках
Выбранный диапазон
Имя файла D:\Документы\Моя музыка\Joe Cocker star series\Joe Cocker - Joe Cocker star series.wav
Пиковый уровень 100.0 %
Качество диапазона 100.0 %
CRC копии 4EF011D1
Копирование... OK
Ошибок не произошло
Конец отчёта
AUDIOCHECKER v2.0 beta (build 457) - by Dester - opdester@freemail.hu
~~~~~~~~~~~~~~~~~~~~~~~~~~~~~~~~~~
Started at: четверг, 09. 04. 2009. - 13:55.49
16 files found
01 -===- track 1 in drive Optiarc DVD RW AD-7173A
Track ripped successfully
Conclusion: this track is CDDA with probability 100%
Tempfile successfully deleted.
02 -===- track 2 in drive Optiarc DVD RW AD-7173A
Track ripped successfully
Conclusion: this track is CDDA with probability 100%
Tempfile successfully deleted.
03 -===- track 3 in drive Optiarc DVD RW AD-7173A
Track ripped successfully
Conclusion: this track is CDDA with probability 100%
Tempfile successfully deleted.
04 -===- track 4 in drive Optiarc DVD RW AD-7173A
Track ripped successfully
Conclusion: this track is CDDA with probability 100%
Tempfile successfully deleted.
05 -===- track 5 in drive Optiarc DVD RW AD-7173A
Track ripped successfully
Conclusion: this track is CDDA with probability 100%
Tempfile successfully deleted.
06 -===- track 6 in drive Optiarc DVD RW AD-7173A
Track ripped successfully
Conclusion: this track is CDDA with probability 100%
Tempfile successfully deleted.
07 -===- track 7 in drive Optiarc DVD RW AD-7173A
Track ripped successfully
Conclusion: this track is CDDA with probability 99%
Tempfile successfully deleted.
08 -===- track 8 in drive Optiarc DVD RW AD-7173A
Track ripped successfully
Conclusion: this track is CDDA with probability 100%
Tempfile successfully deleted.
09 -===- track 9 in drive Optiarc DVD RW AD-7173A
Track ripped successfully
Conclusion: this track is CDDA with probability 100%
Tempfile successfully deleted.
10 -===- track 10 in drive Optiarc DVD RW AD-7173A
Track ripped successfully
Conclusion: this track is CDDA with probability 100%
Tempfile successfully deleted.
11 -===- track 11 in drive Optiarc DVD RW AD-7173A
Track ripped successfully
Conclusion: this track is CDDA with probability 100%
Tempfile successfully deleted.
12 -===- track 12 in drive Optiarc DVD RW AD-7173A
Track ripped successfully
Conclusion: this track is CDDA with probability 100%
Tempfile successfully deleted.
13 -===- track 13 in drive Optiarc DVD RW AD-7173A
Track ripped successfully
Conclusion: this track is CDDA with probability 100%
Tempfile successfully deleted.
14 -===- track 14 in drive Optiarc DVD RW AD-7173A
Track ripped successfully
Conclusion: this track is CDDA with probability 100%
Tempfile successfully deleted.
15 -===- track 15 in drive Optiarc DVD RW AD-7173A
Track ripped successfully
Conclusion: this track is CDDA with probability 99%
Tempfile successfully deleted.
16 -===- track 16 in drive Optiarc DVD RW AD-7173A
Track ripped successfully
Conclusion: this track is CDDA with probability 100%
Tempfile successfully deleted.
Finished at: четверг, 09. 04. 2009. - 14:12.39 (operation time: 0:16.49)
Правила, инструкции, FAQ!!!
Торрент  Добавлен [26 мар 2019, 20:26] Скачать торрент Магнет ссылка
Скачать торрент
[ Размер 19.35 КБ / Просмотров 0 ]

Статус
Проверен 
 
Размер  471.69 МБ
Приватный: Нет (DHT включён)
.torrent скачан  0
 


     Отправить личное сообщение
   
Страница 1 из 1
Показать сообщения за:  Поле сортировки  
Начать новую тему Ответить на тему


Сейчас этот форум просматривают: нет зарегистрированных пользователей и гости: 0


Вы не можете начинать темы
Вы не можете отвечать на сообщения
Вы не можете редактировать свои сообщения
Вы не можете удалять свои сообщения
Вы не можете добавлять вложения

Перейти:  
cron