Начать новую тему Ответить на тему
Статистика раздачи
Размер: 491.56 МБ | Добавлен: 26 мар 2019, 18:41 | Скачали: 0
Сидеров: 0  [0 байт/сек]    Личеров: 0  [0 байт/сек]
Пред. тема | След. тема 

Автор
Сообщение

СообщениеДобавлено: 26 мар 2019, 18:41 

Ответить с цитатой 



Жанр: Blues-Rock, Soft Rock
Страна-производитель диска: USA
Год издания: 2013-2016
Аудиокодек: FLAC (*.flac)
Тип рипа: image+.cue
Битрейт аудио: lossless
Источник (релизер): © ЗУБ2007 и izia1956 - Представляют
Наличие сканов в содержимом раздачи: да

30 Апреля 2016 года добавлен альбом:
2016 - The Way She Change

Желающие могут ознакомиться.
PS. Ай, какой хороший!


01. This Life Is Killing Me
(4:21)
02. Did Me Wrong
(3:27)
03. Cold Rainy Day (4:22)
04. Into the Sun (2:15)
05. Cry Alone (4:29)
06. Red Line (5:12)

Код:
Exact Audio Copy V1.0 beta 3 from 29. August 2011
Отчёт EAC об извлечении, выполненном 23. апреля 2016, 13:29
Thomas David Gibson / Nine Pound Hammer
Дисковод: PLEXTOR DVDR   PX-880SA   Adapter: 1  ID: 0
Режим чтения                 : Достоверность
Использование точного потока : Да
Отключение кэша аудио        : Да
Использование указателей C2  : Нет
Коррекция смещения при чтении                     : 6
Способность читать области Lead-in и Lead-out     : Нет
Заполнение пропущенных сэмплов тишиной            : Да
Удаление блоков с тишиной в начале и конце        : Нет
При вычислениях CRC использовались нулевые сэмплы : Да
Интерфейс                                         : Установленный внешний ASPI-интерфейс
Выходной формат          : Пользовательский кодировщик
Выбранный битрейт        : 1024 kBit/s
Качество                 : Высокий
Добавление ID3-тега      : Нет
Утилита сжатия           : C:\Program Files\Exact Audio Copy\FLAC\FLAC.EXE
Дополнительные параметры : -8 -V -T "ARTIST=%artist%" -T "ALBUM=%albumtitle%" -T "DATE=%year%" -T "GENRE=%genre%" -T "COMMENT=ripped by izia1956" %source%
TOC извлечённого CD
     Трек |   Старт  | Длительность | Начальный сектор | Конечный сектор
    ---------------------------------------------------------------------
       1  |  0:00.00 |    4:21.68   |           0      |      19642
       2  |  4:21.68 |    3:27.00   |       19643      |      35167
       3  |  7:48.68 |    4:22.34   |       35168      |      54851
       4  | 12:11.27 |    2:15.54   |       54852      |      65030
       5  | 14:27.06 |    4:29.19   |       65031      |      85224
       6  | 18:56.25 |    5:12.37   |       85225      |     108661
Характеристики диапазона извлечения и сообщения об ошибках
Выбранный диапазон
     Имя файла D:\BitComet\Thomas David Gibson (flac)\2013 - Nine Pound Hammer\Thomas David Gibson - Nine Pound Hammer.wav
     Пиковый уровень 99.6 %
     Скорость извлечения 2.6 X
     Качество диапазона 99.9 %
     CRC теста 97CA9B41
     CRC копии 97CA9B41
     Копирование... OK
Ошибок не произошло
AccurateRip: сводка
Трек  1  : извлечено точно (доверие 1)  [CFCF361F]  (AR v2)
Трек  2  : извлечено точно (доверие 1)  [98D3E876]  (AR v2)
Трек  3  : извлечено точно (доверие 1)  [D377B524]  (AR v2)
Трек  4  : извлечено точно (доверие 1)  [B7A1C6DC]  (AR v2)
Трек  5  : извлечено точно (доверие 1)  [0D003459]  (AR v2)
Трек  6  : извлечено точно (доверие 1)  [D63B0940]  (AR v2)
Все треки извлечены точно
Конец отчёта
==== Контрольная сумма отчёта 7EF18022CEF3290C367447A37B5D52A78109B87567569030F364AF863D9DE60E ====
Код:
REM GENRE "Blues-Rock, Soft Rock"
REM DATE 2013
REM DISCID 4905A806
REM COMMENT "ExactAudioCopy v1.0b3"
PERFORMER "Thomas David Gibson"
TITLE "Nine Pound Hammer"
FILE "Thomas David Gibson - Nine Pound Hammer.flac" WAVE
  TRACK 01 AUDIO
    TITLE "This Life Is Killing Me"
    PERFORMER "Thomas David Gibson"
    FLAGS DCP
    INDEX 01 00:00:00
  TRACK 02 AUDIO
    TITLE "Did Me Wrong"
    PERFORMER "Thomas David Gibson"
    FLAGS DCP
    INDEX 01 04:21:68
  TRACK 03 AUDIO
    TITLE "Cold Rainy Day"
    PERFORMER "Thomas David Gibson"
    FLAGS DCP
    INDEX 01 07:48:68
  TRACK 04 AUDIO
    TITLE "Into the Sun"
    PERFORMER "Thomas David Gibson"
    FLAGS DCP
    INDEX 01 12:11:27
  TRACK 05 AUDIO
    TITLE "Cry Alone"
    PERFORMER "Thomas David Gibson"
    FLAGS DCP
    INDEX 01 14:27:06
  TRACK 06 AUDIO
    TITLE "Red Line"
    PERFORMER "Thomas David Gibson"
    FLAGS DCP
    INDEX 01 18:56:25
#777
01. The Way She Change
(4:33)
02. House of Cards
(2:36)
03. Soul Shine (3:23)
04. Let Me Sleep (3:16)
05. Despues de la Caida (0:19)
06. Mother (3:23)
07. Simple Life (4:20)
08. Out of Babylon (4:01)
09. Leaving Yesterday Behind (3:50)
10. Family (3:44)
11. On the Border (2:34)
12. Years Don't Lie (2:30)

Код:
Exact Audio Copy V1.0 beta 3 from 29. August 2011
Отчёт EAC об извлечении, выполненном 23. апреля 2016, 13:02
Tom Gibson / The Way She Change
Дисковод: PLEXTOR DVDR   PX-880SA   Adapter: 1  ID: 0
Режим чтения                 : Достоверность
Использование точного потока : Да
Отключение кэша аудио        : Да
Использование указателей C2  : Нет
Коррекция смещения при чтении                     : 6
Способность читать области Lead-in и Lead-out     : Нет
Заполнение пропущенных сэмплов тишиной            : Да
Удаление блоков с тишиной в начале и конце        : Нет
При вычислениях CRC использовались нулевые сэмплы : Да
Интерфейс                                         : Установленный внешний ASPI-интерфейс
Выходной формат          : Пользовательский кодировщик
Выбранный битрейт        : 1024 kBit/s
Качество                 : Высокий
Добавление ID3-тега      : Нет
Утилита сжатия           : C:\Program Files\Exact Audio Copy\FLAC\FLAC.EXE
Дополнительные параметры : -8 -V -T "ARTIST=%artist%" -T "ALBUM=%albumtitle%" -T "DATE=%year%" -T "GENRE=%genre%" -T "COMMENT=ripped by izia1956" %source%
TOC извлечённого CD
     Трек |   Старт  | Длительность | Начальный сектор | Конечный сектор
    ---------------------------------------------------------------------
       1  |  0:00.00 |    4:33.34   |           0      |      20508
       2  |  4:33.34 |    2:36.45   |       20509      |      32253
       3  |  7:10.04 |    3:23.72   |       32254      |      47550
       4  | 10:34.01 |    3:16.01   |       47551      |      62251
       5  | 13:50.02 |    0:19.23   |       62252      |      63699
       6  | 14:09.25 |    3:23.41   |       63700      |      78965
       7  | 17:32.66 |    4:20.53   |       78966      |      98518
       8  | 21:53.44 |    4:01.03   |       98519      |     116596
       9  | 25:54.47 |    3:50.55   |      116597      |     133901
      10  | 29:45.27 |    3:44.26   |      133902      |     150727
      11  | 33:29.53 |    2:34.39   |      150728      |     162316
      12  | 36:04.17 |    2:30.10   |      162317      |     173576
Характеристики диапазона извлечения и сообщения об ошибках
Выбранный диапазон
     Имя файла D:\BitComet\Thomas David Gibson (flac)\2016 - The Way She Change\Tom Gibson - The Way She Change.wav
     Пиковый уровень 99.2 %
     Скорость извлечения 2.7 X
     Качество диапазона 99.9 %
     CRC теста D9ABBB06
     CRC копии D9ABBB06
     Копирование... OK
Ошибок не произошло
AccurateRip: сводка
Трек  1  отсутствует в базе данных
Трек  2  отсутствует в базе данных
Трек  3  отсутствует в базе данных
Трек  4  отсутствует в базе данных
Трек  5  отсутствует в базе данных
Трек  6  отсутствует в базе данных
Трек  7  отсутствует в базе данных
Трек  8  отсутствует в базе данных
Трек  9  отсутствует в базе данных
Трек 10  отсутствует в базе данных
Трек 11  отсутствует в базе данных
Трек 12  отсутствует в базе данных
Ни одного трека нет в базе AccurateRip
Конец отчёта
==== Контрольная сумма отчёта 7706B428E86F44B03254A3C0AE277C352855F2508A562EBFC6F02B7D9544C4FF ====
Код:
REM GENRE "Soft Rock, Blues-Rock"
REM DATE 2016
REM DISCID 92090A0C
REM COMMENT "ExactAudioCopy v1.0b3"
PERFORMER "Tom Gibson"
TITLE "The Way She Change"
FILE "Tom Gibson - The Way She Change.flac" WAVE
  TRACK 01 AUDIO
    TITLE "The Way She Change"
    PERFORMER "Tom Gibson"
    INDEX 01 00:00:00
  TRACK 02 AUDIO
    TITLE "House of Cards"
    PERFORMER "Tom Gibson"
    INDEX 01 04:33:34
  TRACK 03 AUDIO
    TITLE "Soul Shine"
    PERFORMER "Tom Gibson"
    INDEX 01 07:10:04
  TRACK 04 AUDIO
    TITLE "Let Me Sleep"
    PERFORMER "Tom Gibson"
    INDEX 01 10:34:01
  TRACK 05 AUDIO
    TITLE "Despues de la Caida"
    PERFORMER "Tom Gibson"
    INDEX 01 13:50:02
  TRACK 06 AUDIO
    TITLE "Mother"
    PERFORMER "Tom Gibson"
    INDEX 01 14:09:25
  TRACK 07 AUDIO
    TITLE "Simple Life"
    PERFORMER "Tom Gibson"
    INDEX 01 17:32:66
  TRACK 08 AUDIO
    TITLE "Out of Babylon"
    PERFORMER "Tom Gibson"
    INDEX 01 21:53:44
  TRACK 09 AUDIO
    TITLE "Leaving Yesterday Behind"
    PERFORMER "Tom Gibson"
    INDEX 01 25:54:47
  TRACK 10 AUDIO
    TITLE "Family"
    PERFORMER "Tom Gibson"
    INDEX 01 29:45:27
  TRACK 11 AUDIO
    TITLE "On the Border"
    PERFORMER "Tom Gibson"
    INDEX 01 33:29:53
  TRACK 12 AUDIO
    TITLE "Years Don't Lie"
    PERFORMER "Tom Gibson"
    INDEX 01 36:04:17
Доп. информация: Рип сделан собственноручно.
Сканы в папке.
Ознакомиться (прослушать) можно здесь и здесь
Рип от
Правила, инструкции, FAQ!!!
Торрент  Добавлен [26 мар 2019, 18:41] Скачать торрент Магнет ссылка
Скачать торрент
[ Размер 21.3 КБ / Просмотров 8 ]

Статус
Проверен 
 
Размер  491.56 МБ
Приватный: Нет (DHT включён)
.torrent скачан  0
 


     Отправить личное сообщение
   
Страница 1 из 1
Показать сообщения за:  Поле сортировки  
Начать новую тему Ответить на тему


Сейчас этот форум просматривают: нет зарегистрированных пользователей и гости: 0


Вы не можете начинать темы
Вы не можете отвечать на сообщения
Вы не можете редактировать свои сообщения
Вы не можете удалять свои сообщения
Вы не можете добавлять вложения

Перейти:  
cron