Начать новую тему Ответить на тему
Статистика раздачи
Размер: 251.68 МБ | Добавлен: 16 янв 2021, 08:16 | Скачали: 1
Сидеров: 9  [0 байт/сек]    Личеров: 2  [0 байт/сек]
Пред. тема | След. тема 

Автор
Сообщение

СообщениеДобавлено: 16 янв 2021, 08:16 

Ответить с цитатой 


Self Assistance

Sky Dog Floating
in a Land of Impossible Color Combinations





• Жанр: Blues Rock
• Носитель: STREAM
• Год издания: 2020
• Страна: Azores
• Аудиокодек: FLAC (*.flac)
• Тип рипа: tracks
• Продолжительность: 00:45:21
• Источник: deezer
• Наличие сканов: front
Tracklist:
01 - Walking The Dog Blues (00:08:55)
02 - Kl2 (00:04:42)
03 - Nsg (00:08:26)
04 - Road To Monosteyros (00:04:49)
05 - Octopussy (00:06:35)
06 - So Sad (00:06:12)
07 - Pdl Traffic Jam (00:05:39)

Код:
foobar2000 1.4.2 / Dynamic Range Meter 1.1.1
log date: 2021-01-14 08:39:19
--------------------------------------------------------------------------------
Analyzed: Self Assistance / Sky Dog Floating in a Land of Impossible Color Combinations
--------------------------------------------------------------------------------
DR         Peak         RMS     Duration Track
--------------------------------------------------------------------------------
DR8       -0.11 dB   -10.03 dB      8:55 1/7-Walking the Dog Blues
DR8       -0.49 dB   -11.50 dB      4:43 2/7-Kl2
DR8       -0.11 dB   -10.16 dB      8:27 3/7-Nsg
DR8       -0.11 dB   -11.92 dB      4:49 4/7-Road to Monosteyros
DR8       -0.11 dB   -10.06 dB      6:35 5/7-Octopussy
DR8       -0.11 dB   -10.35 dB      6:12 6/7-So Sad
DR8       -0.22 dB   -10.18 dB      5:40 7/7-Pdl Traffic Jam
--------------------------------------------------------------------------------
Number of tracks:  7
Official DR value: DR8
Samplerate:        44100 Hz
Channels:          2
Bits per sample:   16
Bitrate:           847 kbps
Codec:             FLAC
================================================================================

Код:
-----------------------
DON'T MODIFY THIS FILE
-----------------------
PERFORMER: auCDtect Task Manager, ver. 1.5.1RC3 build 1.5.1.4
Copyright (c) 2008-2010 y-soft. All rights reserved
[url=http://y-soft.org]http://y-soft.org[/url]
ANALYZER: auCDtect: CD records authenticity detector, version 0.8.2
Copyright (c) 2004 Oleg Berngardt. All rights reserved.
Copyright (c) 2004 Alexander Djourik. All rights reserved.
FILE: 07 - Pdl Traffic Jam.flac
  Size: 36056764 Hash: D2EF76DD382C2F660A362A2978CDF88C Accuracy: -m8
  Conclusion: CDDA 100%
  Signature: CD1D39A0BC80CC3F00D389C6AAA26D1B84501508
FILE: 06 - So Sad.flac
  Size: 36045920 Hash: 0F17A2BA0A2DEC37F64E077725C494B2 Accuracy: -m8
  Conclusion: CDDA 100%
  Signature: A276B7FB5CD5337BC70C88CC2CC9D8A87F078983
FILE: 05 - Octopussy.flac
  Size: 41494306 Hash: B1917AC4C13AE3587F2F33E83B860CF4 Accuracy: -m8
  Conclusion: CDDA 100%
  Signature: D06C4C877B8F7C61F713D3B80F131A5712D71E37
FILE: 04 - Road To Monosteyros.flac
  Size: 24432720 Hash: E7B9B2661490F21A523BBFD3EB0B5440 Accuracy: -m8
  Conclusion: CDDA 100%
  Signature: 6962B39A99715250EFD2543AC2F95BCC10613D75
FILE: 03 - Nsg.flac
  Size: 46420632 Hash: DE731DBC7763F39EC7DFE260AE23FA69 Accuracy: -m8
  Conclusion: CDDA 100%
  Signature: EE932B00CF4626D5EF14B7FDF51E79BF7924447E
FILE: 02 - Kl2.flac
  Size: 23611192 Hash: F2B95722FE5E8D4C3C3A7C05EB0E3E9D Accuracy: -m8
  Conclusion: CDDA 76%
  Signature: 643201AD40C60AE2943F7109D9BF2C50650B1A4F
FILE: 01 - Walking The Dog Blues.flac
  Size: 55375103 Hash: FC9463A13478E3F7674A8ABE24BD9B5F Accuracy: -m8
  Conclusion: CDDA 99%
  Signature: 41955A29873F02D6EF8300AF34F2F6BB224860CC

Правила, инструкции, FAQ!!!
Торрент  Добавлен [16 янв 2021, 08:16] Скачать торрент Магнет ссылка
Скачать торрент
[ Размер 20.56 КБ / Просмотров 41 ]

Статус
Проверен 
 
Размер  251.68 МБ
Приватный: Нет (DHT включён)
.torrent скачан  1
 


     Отправить личное сообщение
   
Страница 1 из 1
Показать сообщения за:  Поле сортировки  
Начать новую тему Ответить на тему


Сейчас этот форум просматривают: нет зарегистрированных пользователей и гости: 0


Вы не можете начинать темы
Вы не можете отвечать на сообщения
Вы не можете редактировать свои сообщения
Вы не можете удалять свои сообщения
Вы не можете добавлять вложения

Перейти:  
cron