Начать новую тему Ответить на тему
Статистика раздачи
Размер: 281.74 МБ | Добавлен: 26 мар 2019, 19:11 | Скачали: 0
Сидеров: 0  [0 байт/сек]    Личеров: 4  [0 байт/сек]
Пред. тема | След. тема 

Автор
Сообщение

СообщениеДобавлено: 26 мар 2019, 19:11 

Ответить с цитатой 

The Verbs / Cover Story
Жанр: Blues Rock, Psychedelic, Covers
Носитель: CD
Год издания: 2015
Издатель (лейбл): Jay-Vee Records
Страна исполнителя (группы): US
Аудиокодек: FLAC (*.flac)
Тип рипа: tracks+.cue
Битрейт аудио: lossless
Продолжительность: 38:14
Источник (релизер): what.cd
Наличие сканов в содержимом раздачи: да
Треклист:
01 - “Till the End of the Day” (The Kinks)
02 - “Baby Blue” (Badfinger)
03 - “Black Is Black” (Los Bravos)
04 - “Easy Now” (Eric Clapton)
05 - “United We Stand” (Brotherhood of Man)
06 - “Glad All Over” (The Dave Clark Five)
07 - “I Saw the Light” (Todd Rundgren)
08 - “You Showed Me” (The Byrds/The Turtles)
09 - “Have You Ever Seen the Rain” (Creedance Clearwater Revival)
10 - “I'm Not Lisa” (Jessi Colter)
http://www.theverbs.us/
Код:
Exact Audio Copy V1.0 beta 6 from 9. April 2015
EAC extraction logfile from 23. February 2016, 17:34
The Verbs / Cover Story
Used drive  : LITE-ON DVD+RW SOHW-802S   Adapter: 1  ID: 1
Read mode               : Secure
Utilize accurate stream : Yes
Defeat audio cache      : Yes
Make use of C2 pointers : No
Read offset correction                      : 12
Overread into Lead-In and Lead-Out          : No
Fill up missing offset samples with silence : Yes
Delete leading and trailing silent blocks   : No
Null samples used in CRC calculations       : Yes
Used interface                              : Native Win32 interface for Win NT & 2000
Gap handling                                : Appended to previous track
Used output format              : User Defined Encoder
Selected bitrate                : 1024 kBit/s
Quality                         : High
Add ID3 tag                     : No
Command line compressor         : C:\Program Files\FLAC\flac.exe
Additional command line options : -8 -V -T "ARTIST=%artist%" -T "TITLE=%title%" -T "ALBUM=%albumtitle%" -T "DATE=%year%" -T "TRACKNUMBER=%tracknr%" -T "GENRE=%genre%" -T "PERFORMER=%albuminterpret%" -T "COMPOSER=%composer%" %haslyrics%--tag-from-file=LYRICS="%lyricsfile%"%haslyrics% -T "ALBUMARTIST=%albumartist%" -T "DISCNUMBER=%cdnumber%" -T "TOTALDISCS=%totalcds%" -T "TOTALTRACKS=%numtracks%" -T "COMMENT=%comment%" %source% -o %dest%
TOC of the extracted CD
     Track |   Start  |  Length  | Start sector | End sector
    ---------------------------------------------------------
        1  |  0:00.00 |  3:23.27 |         0    |    15251
        2  |  3:23.27 |  3:33.07 |     15252    |    31233
        3  |  6:56.34 |  4:19.00 |     31234    |    50658
        4  | 11:15.34 |  6:36.55 |     50659    |    80413
        5  | 17:52.14 |  3:26.19 |     80414    |    95882
        6  | 21:18.33 |  3:32.24 |     95883    |   111806
        7  | 24:50.57 |  2:52.38 |    111807    |   124744
        8  | 27:43.20 |  3:05.15 |    124745    |   138634
        9  | 30:48.35 |  3:53.15 |    138635    |   156124
       10  | 34:41.50 |  3:35.03 |    156125    |   172252
Track  1
     Filename C:\Users\kqwiet\Desktop\Music Conversions\01 - Till The End Of The Day.wav
     Pre-gap length  0:00:02.00
     Peak level 100.0 %
     Extraction speed 2.2 X
     Track quality 100.0 %
     Test CRC 30D96DDC
     Copy CRC 30D96DDC
     Accurately ripped (confidence 1)  [623EA7A4]  (AR v2)
     Copy OK
Track  2
     Filename C:\Users\kqwiet\Desktop\Music Conversions\02 - Baby Blue.wav
     Peak level 100.0 %
     Extraction speed 2.5 X
     Track quality 99.9 %
     Test CRC 674F394C
     Copy CRC 674F394C
     Accurately ripped (confidence 1)  [423DB59E]  (AR v2)
     Copy OK
Track  3
     Filename C:\Users\kqwiet\Desktop\Music Conversions\03 - Black Is Black.wav
     Peak level 100.0 %
     Extraction speed 2.6 X
     Track quality 100.0 %
     Test CRC 1E4BA492
     Copy CRC 1E4BA492
     Accurately ripped (confidence 1)  [A9017A76]  (AR v2)
     Copy OK
Track  4
     Filename C:\Users\kqwiet\Desktop\Music Conversions\04 - Easy Now.wav
     Peak level 100.0 %
     Extraction speed 3.0 X
     Track quality 99.9 %
     Test CRC 422CDAAD
     Copy CRC 422CDAAD
     Accurately ripped (confidence 1)  [93783B9A]  (AR v2)
     Copy OK
Track  5
     Filename C:\Users\kqwiet\Desktop\Music Conversions\05 - United We Stand.wav
     Peak level 97.9 %
     Extraction speed 3.1 X
     Track quality 100.0 %
     Test CRC 3F2680C5
     Copy CRC 3F2680C5
     Accurately ripped (confidence 1)  [C44F6B31]  (AR v2)
     Copy OK
Track  6
     Filename C:\Users\kqwiet\Desktop\Music Conversions\06 - Glad All Over.wav
     Peak level 94.7 %
     Extraction speed 3.2 X
     Track quality 100.0 %
     Test CRC 7634859F
     Copy CRC 7634859F
     Accurately ripped (confidence 1)  [E78AB72C]  (AR v2)
     Copy OK
Track  7
     Filename C:\Users\kqwiet\Desktop\Music Conversions\07 - I Saw The Light.wav
     Pre-gap length  0:00:03.86
     Peak level 100.0 %
     Extraction speed 3.3 X
     Track quality 100.0 %
     Test CRC DCC2D9DE
     Copy CRC DCC2D9DE
     Accurately ripped (confidence 1)  [E572800A]  (AR v2)
     Copy OK
Track  8
     Filename C:\Users\kqwiet\Desktop\Music Conversions\08 - You Showed Me.wav
     Peak level 100.0 %
     Extraction speed 3.4 X
     Track quality 100.0 %
     Test CRC 2E07471C
     Copy CRC 2E07471C
     Accurately ripped (confidence 1)  [E0BECA6F]  (AR v2)
     Copy OK
Track  9
     Filename C:\Users\kqwiet\Desktop\Music Conversions\09 - Have You Ever Seen The Rain.wav
     Peak level 100.0 %
     Extraction speed 3.5 X
     Track quality 100.0 %
     Test CRC BADC2937
     Copy CRC BADC2937
     Accurately ripped (confidence 1)  [C54A355D]  (AR v2)
     Copy OK
Track 10
     Filename C:\Users\kqwiet\Desktop\Music Conversions\10 - I'm Not Lisa.wav
     Peak level 98.7 %
     Extraction speed 3.1 X
     Track quality 100.0 %
     Test CRC BDDAE51E
     Copy CRC BDDAE51E
     Accurately ripped (confidence 1)  [1F433210]  (AR v2)
     Copy OK
All tracks accurately ripped
No errors occurred
End of status report
---- CUETools DB Plugin V2.1.6
[CTDB TOCID: bL7HRmnSdMs2V7xnsYORli_iaVE-] database access error: The remote name could not be resolved: 'db.cuetools.net'
==== Log checksum 8442DCD40FB4295F1E7FA4654AA84133A837D739AF527A54CF6AE40027516691 ====
Код:
REM GENRE Rock
REM DATE 2015
REM DISCID 7E08F80A
REM COMMENT "ExactAudioCopy v1.0b6"
PERFORMER "The Verbs"
TITLE "Cover Story"
FILE "01 - Till The End Of The Day.wav" WAVE
  TRACK 01 AUDIO
    TITLE "Till The End Of The Day"
    PERFORMER "The Verbs"
    INDEX 01 00:00:00
FILE "02 - Baby Blue.wav" WAVE
  TRACK 02 AUDIO
    TITLE "Baby Blue"
    PERFORMER "The Verbs"
    INDEX 01 00:00:00
FILE "03 - Black Is Black.wav" WAVE
  TRACK 03 AUDIO
    TITLE "Black Is Black"
    PERFORMER "The Verbs"
    INDEX 01 00:00:00
FILE "04 - Easy Now.wav" WAVE
  TRACK 04 AUDIO
    TITLE "Easy Now"
    PERFORMER "The Verbs"
    INDEX 01 00:00:00
FILE "05 - United We Stand.wav" WAVE
  TRACK 05 AUDIO
    TITLE "United We Stand"
    PERFORMER "The Verbs"
    INDEX 01 00:00:00
FILE "06 - Glad All Over.wav" WAVE
  TRACK 06 AUDIO
    TITLE "Glad All Over"
    PERFORMER "The Verbs"
    INDEX 01 00:00:00
  TRACK 07 AUDIO
    TITLE "I Saw The Light"
    PERFORMER "The Verbs"
    INDEX 00 03:28:34
FILE "07 - I Saw The Light.wav" WAVE
    INDEX 01 00:00:00
FILE "08 - You Showed Me.wav" WAVE
  TRACK 08 AUDIO
    TITLE "You Showed Me"
    PERFORMER "The Verbs"
    INDEX 01 00:00:00
FILE "09 - Have You Ever Seen The Rain.wav" WAVE
  TRACK 09 AUDIO
    TITLE "Have You Ever Seen The Rain"
    PERFORMER "The Verbs"
    INDEX 01 00:00:00
FILE "10 - I'm Not Lisa.wav" WAVE
  TRACK 10 AUDIO
    TITLE "I'm Not Lisa"
    PERFORMER "The Verbs"
    INDEX 01 00:00:00
The Verbs are a band founded and produced by Steve Jordan and Meegan Voss; with Japanese legend Tamio Okuda on guitar and bassist Willie Weeks (George Harrison, Eric Clapton, David Bowie). Meegan Voss, frontwoman of cult band The Poptarts and CBGB regulars The Antoinettes and Jordan, a multiple Grammy and Emmy winner, who has performed, produced and written songs with Keith Richards (and the X-pensive Winos) Neil Young, John Mayer Trio; hand picked, crafted and produced songs they loved from the 60s and 70s which became Cover Story their gift of songs that moved them and will move us.
Meegan Voss (vocals, acoustic guitar, electric guitar, piano, Farfisa, vibraphone, background vocals);
Steve Jordan (acoustic guitar, electric guitar, Fender Rhodes piano, Wurlitzer organ, Mellotron, drums, percussion, background vocals);
Tamio Okuda (electric guitar);
Willie Weeks (bass, background vocals)
Правила, инструкции, FAQ!!!
Торрент  Добавлен [26 мар 2019, 19:11] Скачать торрент Магнет ссылка
Скачать торрент
[ Размер 12.35 КБ / Просмотров 8 ]

Статус
Проверен 
 
Размер  281.74 МБ
Приватный: Нет (DHT включён)
.torrent скачан  0
 


     Отправить личное сообщение
   
Страница 1 из 1
Показать сообщения за:  Поле сортировки  
Начать новую тему Ответить на тему


Сейчас этот форум просматривают: нет зарегистрированных пользователей и гости: 0


Вы не можете начинать темы
Вы не можете отвечать на сообщения
Вы не можете редактировать свои сообщения
Вы не можете удалять свои сообщения
Вы не можете добавлять вложения

Перейти:  
cron