Начать новую тему Ответить на тему
Статистика раздачи
Размер: 448.54 МБ | Добавлен: 26 мар 2019, 20:26 | Скачали: 6
Сидеров: 2  [0 байт/сек]    Личеров: 0  [0 байт/сек]
Пред. тема | След. тема 

Автор
Сообщение

СообщениеДобавлено: 26 мар 2019, 20:26 

Ответить с цитатой 

Joe Cocker - The Very Best
Жанр: Rock, Blues Rock, Soft Rock
Страна-производитель диска: (*)
Год издания диска: 1996 (*)
Номер по каталогу: JC-41096-VB
Страна: UK
Аудио кодек: FLAC (*.flac)
Тип рипа: image+.cue
Битрейт аудио: lossless
Продолжительность: 1:10:47
Источник (релизер): Joerrigo
Наличие сканов в содержимом раздачи: да
Треклист:
01 - Don't Let Me Be Misunderstood
02 - Unchain My Heart
03 - Summer In The City
04 - You Can Leave Your Hat On
05 - Now That The Magic Has Gone
06 - The Simple Things
07 - Night Calls
08 - Anybody Seen My Girl
09 - Human Touch
10 - Let The Healing Begin
11 - Shelter Me
12 - Have A Little Faith In Me
13 - With A Little Help From My Friends
14 - Heart Of The Matter
15 - When The Night Comes
16 - You Are So Beautiful
17 - Up Where We Belong
Доп. информация:
(*) Официальная информация о данном издании отсутствует. На самом диске также отсутствует информация о годе выпуска и производителе, хотя некий бар-код имеется. Из чего исходим, что имеем дело с очередным бутлегом.
Что не умаляет заслуг самого Джо Кокера и представленной на диске компиляции лучшего из лучшего (на момент выхода сборника).
Сам год издания (1996) взят из Сети и не может быть подтвержден. Привожу лишь с целью очертить время создания данной компиляции. Хотя с большой долей вероятности можно принять указанную дату релиза, поскольку в сборнике есть хиты 96-го года, но нет абсолютного хита 1999-го - "Сын моего отца"
Несмотря на сомнительность издания, AccuRip выдал "добро".

Еще один забавный факт: недавно в Сети появилась очередная свежая бутлег-подборка исполнителя (2010 года), использующая представленную на диске обложку. Вор у вора своровал!
Код:
Exact Audio Copy V0.99 prebeta 5 from 4. May 2009
Отчёт EAC об извлечении, выполненном 22. января 2011, 21:05
Joe Cocker / The Very Best
Дисковод: ATAPI   DVD A  DH16A3S   Adapter: 0  ID: 0
Режим чтения                 : Достоверность
Использование точного потока : Да
Отключение кэша аудио        : Да
Использование указателей C2  : Нет
Коррекция смещения при чтении                     : 6
Способность читать области Lead-in и Lead-out     : Нет
Заполнение пропущенных сэмплов тишиной            : Да
Удаление блоков с тишиной в начале и конце        : Нет
При вычислениях CRC использовались нулевые сэмплы : Да
Интерфейс                                         : Установленный внешний ASPI-интерфейс
Выходной формат          : Пользовательский кодировщик
Выбранный битрейт        : 768 kBit/s
Качество                 : Высокий
Добавление ID3-тэга      : Нет
Утилита сжатия           : C:\Program Files\EAC\Flac\flac.exe
Дополнительные параметры : -T "DATE=%y" -T "GENRE=%m" -8 -V %s
TOC извлечённого CD
     Трек |   Старт  | Длительность | Начальный сектор | Конечный сектор
    ---------------------------------------------------------------------
       1  |  0:00.00 |    3:53.18   |           0      |      17492
       2  |  3:53.18 |    5:06.27   |       17493      |      40469
       3  |  8:59.45 |    3:55.03   |       40470      |      58097
       4  | 12:54.48 |    3:46.15   |       58098      |      75062
       5  | 16:40.63 |    4:38.55   |       75063      |      95967
       6  | 21:19.43 |    4:51.50   |       95968      |     117842
       7  | 26:11.18 |    3:27.05   |      117843      |     133372
       8  | 29:38.23 |    3:03.27   |      133373      |     147124
       9  | 32:41.50 |    3:48.23   |      147125      |     164247
      10  | 36:29.73 |    5:09.50   |      164248      |     187472
      11  | 41:39.48 |    4:21.40   |      187473      |     207087
      12  | 46:01.13 |    4:41.20   |      207088      |     228182
      13  | 50:42.33 |    5:11.27   |      228183      |     251534
      14  | 55:53.60 |    4:20.70   |      251535      |     271104
      15  | 60:14.55 |    3:58.08   |      271105      |     288962
      16  | 64:12.63 |    2:40.50   |      288963      |     301012
      17  | 66:53.38 |    3:53.25   |      301013      |     318512
Характеристики диапазона извлечения и сообщения об ошибках
Выбранный диапазон
     Имя файла M:\Music\00\Joe Cocker - The Very Best\Joe Cocker - The Very Best.wav
     Пиковый уровень 100.0 %
     Качество диапазона 100.0 %
     CRC теста FA5051E4
     CRC копии FA5051E4
     Копирование... OK
Ошибок не произошло
AccurateRip: сводка
Трек  1  точное извлечение (доверие 6)  [95092A57]
Трек  2  точное извлечение (доверие 6)  [33221D33]
Трек  3  точное извлечение (доверие 6)  [C1B25566]
Трек  4  точное извлечение (доверие 6)  [DBBBB40E]
Трек  5  точное извлечение (доверие 6)  [409280AB]
Трек  6  точное извлечение (доверие 6)  [4537A4FE]
Трек  7  точное извлечение (доверие 6)  [A467722B]
Трек  8  точное извлечение (доверие 6)  [17EA8D75]
Трек  9  точное извлечение (доверие 6)  [982E191F]
Трек 10  точное извлечение (доверие 6)  [5FAC93E1]
Трек 11  точное извлечение (доверие 6)  [75650AA1]
Трек 12  точное извлечение (доверие 6)  [C1509A18]
Трек 13  точное извлечение (доверие 6)  [E417722C]
Трек 14  точное извлечение (доверие 6)  [448F8FE0]
Трек 15  точное извлечение (доверие 6)  [16CF69A1]
Трек 16  точное извлечение (доверие 6)  [B037AF1D]
Трек 17  точное извлечение (доверие 6)  [15E82FB6]
Все треки извлечены точно
Конец отчёта
Код:
REM DISCID DC109611
REM COMMENT "ExactAudioCopy v0.99pb5"
PERFORMER "Joe Cocker"
TITLE "The Very Best"
FILE "Joe Cocker - The Very Best.flac" WAVE
  TRACK 01 AUDIO
    TITLE "Don't Let Me Be Misunderstood"
    PERFORMER "Joe Cocker"
    INDEX 01 00:00:00
  TRACK 02 AUDIO
    TITLE "Unchain My Heart"
    PERFORMER "Joe Cocker"
    INDEX 01 03:53:18
  TRACK 03 AUDIO
    TITLE "Summer In The City"
    PERFORMER "Joe Cocker"
    INDEX 01 08:59:45
  TRACK 04 AUDIO
    TITLE "You Can Leave Your Hat On"
    PERFORMER "Joe Cocker"
    INDEX 01 12:54:48
  TRACK 05 AUDIO
    TITLE "Now That The Magic Has Gone"
    PERFORMER "Joe Cocker"
    INDEX 01 16:40:63
  TRACK 06 AUDIO
    TITLE "The Simple Things"
    PERFORMER "Joe Cocker"
    INDEX 00 21:19:08
    INDEX 01 21:19:43
  TRACK 07 AUDIO
    TITLE "Night Calls"
    PERFORMER "Joe Cocker"
    INDEX 00 26:10:13
    INDEX 01 26:11:18
  TRACK 08 AUDIO
    TITLE "Anybody Seen My Girl"
    PERFORMER "Joe Cocker"
    INDEX 00 29:37:68
    INDEX 01 29:38:23
  TRACK 09 AUDIO
    TITLE "Human Touch"
    PERFORMER "Joe Cocker"
    INDEX 00 32:41:38
    INDEX 01 32:41:50
  TRACK 10 AUDIO
    TITLE "Let The Healing Begin"
    PERFORMER "Joe Cocker"
    INDEX 00 36:27:63
    INDEX 01 36:29:73
  TRACK 11 AUDIO
    TITLE "Shelter Me"
    PERFORMER "Joe Cocker"
    INDEX 00 41:39:25
    INDEX 01 41:39:48
  TRACK 12 AUDIO
    TITLE "Have A Little Faith In Me"
    PERFORMER "Joe Cocker"
    INDEX 00 46:01:08
    INDEX 01 46:01:13
  TRACK 13 AUDIO
    TITLE "With A Little Help From My Friends"
    PERFORMER "Joe Cocker"
    INDEX 01 50:42:33
  TRACK 14 AUDIO
    TITLE "Heart Of The Matter"
    PERFORMER "Joe Cocker"
    INDEX 00 55:53:55
    INDEX 01 55:53:60
  TRACK 15 AUDIO
    TITLE "When The Night Comes"
    PERFORMER "Joe Cocker"
    INDEX 00 60:14:13
    INDEX 01 60:14:55
  TRACK 16 AUDIO
    TITLE "You Are So Beautiful"
    PERFORMER "Joe Cocker"
    INDEX 01 64:12:63
  TRACK 17 AUDIO
    TITLE "Up Where We Belong"
    PERFORMER "Joe Cocker"
    INDEX 00 66:53:00
    INDEX 01 66:53:38

В раздачах есть еще несколько кубинских дисков.
В их числе один бестселлер - двойной сборник Nueva Trova Cubana. Как сказала тетечка в музыкальной лавке в центре Санта-Клары: "Есть музыка для ног, а это - для ушей".
Оттуда же эксклюзивный самолепный диск местной группы "Лос Дедушкос" (Repertorio Septeto Los Gimes). Такие 80-летние деды зажигают классический кубинский репертуар Buena Vista Social Club.
Еще есть несколько дисков Isaac Delgado - приджазеный, коммерчески успешный кубинский продукт.
Также настоятельно рекомендую еще одну "кубинскую" раздачу: Juan Manuel Ceruto. Отличнейший кубинский джаз, и играют профессионалы!
И чтобы уж совсем добить: вот такая штучка "не для средних ушей" - сборник аутентичной турецкой музыки Altin Sarkilar 4 (The Best of Turkish music).
Несмотря на ужасающее качество оцифровки, все-таки решил выложить совершенно эксклюзивную вещь - песни носильщиков с Килиманджаро. Сам диск к сожалению безвозвратно потерян, но даже на 80 Кб/с это стоит прослушивания!
Правила, инструкции, FAQ!!!
Торрент  Добавлен [26 мар 2019, 20:26] Скачать торрент Магнет ссылка
Скачать торрент
[ Размер 18.48 КБ / Просмотров 61 ]

Статус
Проверен 
 
Размер  448.54 МБ
Приватный: Нет (DHT включён)
.torrent скачан  6
 


     Отправить личное сообщение
   
Страница 1 из 1
Показать сообщения за:  Поле сортировки  
Начать новую тему Ответить на тему


Сейчас этот форум просматривают: нет зарегистрированных пользователей и гости: 0


Вы не можете начинать темы
Вы не можете отвечать на сообщения
Вы не можете редактировать свои сообщения
Вы не можете удалять свои сообщения
Вы не можете добавлять вложения

Перейти:  
cron