Начать новую тему Ответить на тему
Статистика раздачи
Размер: 513.28 МБ | Добавлен: 26 мар 2019, 20:31 | Скачали: 0
Сидеров: 0  [0 байт/сек]    Личеров: 0  [0 байт/сек]
Пред. тема | След. тема 

Автор
Сообщение

СообщениеДобавлено: 26 мар 2019, 20:31 

Ответить с цитатой 

Joe Cocker - Live -1990
Жанр: Blues Rock
Год выпуска диска: 1990
Производитель диска: UK
Аудио кодек: FLAC
Тип рипа: image+.cue
Битрейт аудио: lossless
Продолжительность: 01:12:49
Трэклист:
01 - Feelin' Alright
02 - Shelter Me
03 - Hitchcock Railway
04 - Up Where We Belong (Duet with Maxine Greene)
05 - Guilty
06 - You Can Leave Your Hat On
07 - When The Night Comes
08 - Unchain My Heart
09 - With A Little Help From My Friends
10 - You Are So Beautiful
11 - The Letter
12 - She Came In Through The Bathroom Window
13 - High Time We Went
14 - What Are You Doing With A Fool Like Me
15 - Living In The Promiseland
Доп. информация:
Код:
Exact Audio Copy V0.99 prebeta 4 from 23. January 2008
EAC extraction logfile from 1. August 2008, 20:40
Joe Cocker / Live
Used drive  : PHILIPS SPD3100L   Adapter: 6  ID: 0
Read mode               : Secure
Utilize accurate stream : Yes
Defeat audio cache      : Yes
Make use of C2 pointers : No
Read offset correction                      : 6
Overread into Lead-In and Lead-Out          : No
Fill up missing offset samples with silence : Yes
Delete leading and trailing silent blocks   : No
Null samples used in CRC calculations       : Yes
Used interface                              : Installed external ASPI interface
Used output format : Internal WAV Routines
Sample format      : 44.100 Hz; 16 Bit; Stereo
TOC of the extracted CD
     Track |   Start  |  Length  | Start sector | End sector
    ---------------------------------------------------------
        1  |  0:00.00 |  5:11.25 |         0    |    23349
        2  |  5:11.25 |  4:29.58 |     23350    |    43582
        3  |  9:41.08 |  4:03.22 |     43583    |    61829
        4  | 13:44.30 |  4:39.35 |     61830    |    82789
        5  | 18:23.65 |  2:45.63 |     82790    |    95227
        6  | 21:09.53 |  4:31.52 |     95228    |   115604
        7  | 25:41.30 |  4:55.50 |    115605    |   137779
        8  | 30:37.05 |  5:57.18 |    137780    |   164572
        9  | 36:34.23 |  9:27.27 |    164573    |   207124
       10  | 46:01.50 |  2:46.45 |    207125    |   219619
       11  | 48:48.20 |  4:40.55 |    219620    |   240674
       12  | 53:29.00 |  2:36.03 |    240675    |   252377
       13  | 56:05.03 |  8:01.32 |    252378    |   288484
       14  | 64:06.35 |  4:50.13 |    288485    |   310247
       15  | 68:56.48 |  3:55.25 |    310248    |   327897
Range status and errors
Selected range
     Filename F:\A\Joe Cocker - Live.wav
     Peak level 100.0 %
     Range quality 99.9 %
     Copy CRC 8BCAB19B
     Copy OK
No errors occurred
End of status report
AUDIOCHECKER v2.0 beta (build 457) - by Dester - opdester@freemail.hu
~~~~~~~~~~~~~~~~~~~~~~~~~~~~~~~~~~
Started at: понедельник, 26. 10. 2009. - 21:33.32
1 file found
1 -===- D:\Новая папка\Joe Cocker\Joe Cocker - 1992 - Live\Joe Cocker - Live.flac
Extracted successfully
Conclusion: this track is CDDA with probability 99%
Tempfile successfully deleted.
Finished at: понедельник, 26. 10. 2009. - 21:40.25 (operation time: 0:06.53)
источник интернет
Правила, инструкции, FAQ!!!
Торрент  Добавлен [26 мар 2019, 20:31] Скачать торрент Магнет ссылка
Скачать торрент
[ Размер 11.14 КБ / Просмотров 3 ]

Статус
Проверен 
 
Размер  513.28 МБ
Приватный: Нет (DHT включён)
.torrent скачан  0
 


     Отправить личное сообщение
   
Страница 1 из 1
Показать сообщения за:  Поле сортировки  
Начать новую тему Ответить на тему


Сейчас этот форум просматривают: нет зарегистрированных пользователей и гости: 0


Вы не можете начинать темы
Вы не можете отвечать на сообщения
Вы не можете редактировать свои сообщения
Вы не можете удалять свои сообщения
Вы не можете добавлять вложения

Перейти:  
cron