Начать новую тему Ответить на тему
Статистика раздачи
Размер: 286.63 МБ | Добавлен: 16 янв 2021, 08:47 | Скачали: 0
Сидеров: 1  [0 байт/сек]    Личеров: 0  [0 байт/сек]
Пред. тема | След. тема 

Автор
Сообщение

СообщениеДобавлено: 16 янв 2021, 08:47 

Ответить с цитатой 


Fried Okra Band

Doing It Right





• Жанр: Blues Rock
• Носитель: STREAM
• Год издания: 2020
• Страна: Denmark
• Аудиокодек: FLAC (*.flac)
• Тип рипа: tracks
• Продолжительность: 00:43:38
• Источник: deezer
• Наличие сканов: front
Tracklist:
01 - You're Doing It Right (00:03:45)
02 - As Long As I Remember (00:04:39)
03 - Copenhagen Fast Track (00:06:01)
04 - Tupelo Bound (00:03:52)
05 - Shove It (00:03:50)
06 - Deep Water (00:06:11)
07 - I Tried In Vain (00:04:05)
08 - I Dont Wanna Go (00:05:05)
09 - I Been Working (00:03:06)
10 - I Don't Know (00:03:01)

Код:
foobar2000 1.4.2 / Dynamic Range Meter 1.1.1
log date: 2021-01-14 08:37:29
--------------------------------------------------------------------------------
Analyzed: Fried Okra Band / Doing It Right
--------------------------------------------------------------------------------
DR         Peak         RMS     Duration Track
--------------------------------------------------------------------------------
DR8       -0.24 dB    -8.84 dB      3:45 1/10-You're Doing It Right
DR7       -0.24 dB    -8.12 dB      4:39 2/10-As Long as I Remember
DR7       -0.26 dB    -8.99 dB      6:01 3/10-Copenhagen Fast Track
DR8       -0.13 dB   -10.16 dB      3:53 4/10-Tupelo Bound
DR7       -0.18 dB    -8.72 dB      3:50 5/10-Shove It
DR7       -0.22 dB    -8.48 dB      6:11 6/10-Deep Water
DR7       -0.08 dB    -8.42 dB      4:05 7/10-I Tried in Vain
DR6       -0.27 dB    -6.83 dB      5:05 8/10-I Dont Wanna Go
DR7       -0.25 dB    -9.05 dB      3:07 9/10-I Been Working
DR7       -0.26 dB    -8.51 dB      3:01 10/10-I Don't Know
--------------------------------------------------------------------------------
Number of tracks:  10
Official DR value: DR7
Samplerate:        44100 Hz
Channels:          2
Bits per sample:   16
Bitrate:           929 kbps
Codec:             FLAC
================================================================================

Код:
-----------------------
DON'T MODIFY THIS FILE
-----------------------
PERFORMER: auCDtect Task Manager, ver. 1.5.1RC3 build 1.5.1.4
Copyright (c) 2008-2010 y-soft. All rights reserved
[url=http://y-soft.org]http://y-soft.org[/url]
ANALYZER: auCDtect: CD records authenticity detector, version 0.8.2
Copyright (c) 2004 Oleg Berngardt. All rights reserved.
Copyright (c) 2004 Alexander Djourik. All rights reserved.
FILE: 10 - I Don't Know.flac
  Size: 21377495 Hash: 78B9AE0C3B8AD9D938403F4098449F3B Accuracy: -m8
  Conclusion: CDDA 99%
  Signature: D179AEC9D0971D4C8D18732CFCE2AD73888308C8
FILE: 09 - I Been Working.flac
  Size: 20119180 Hash: F8201F5F6A1896313B7D394B2CCEF18B Accuracy: -m8
  Conclusion: CDDA 99%
  Signature: 987924702C448E3A1AEE3C6F39AB1D25FC82EE61
FILE: 08 - I Dont Wanna Go.flac
  Size: 33149421 Hash: F816A9F72E4F1EAEC3FFF5E3E0917576 Accuracy: -m8
  Conclusion: CDDA 100%
  Signature: F6AB1422984B7558227AB5C62EA2055DC0B3F39F
FILE: 07 - I Tried In Vain.flac
  Size: 29068940 Hash: 10900108A7695AC8966FC588771843F4 Accuracy: -m8
  Conclusion: CDDA 100%
  Signature: 5557F54BA603F4C878E55E8EC949899C3E724AA7
FILE: 06 - Deep Water.flac
  Size: 45153237 Hash: AA93CC69D7120F19C01745B5E740D19C Accuracy: -m8
  Conclusion: CDDA 100%
  Signature: C997C84DEF329649CA5AE618E2AFE2EEE8618831
FILE: 05 - Shove It.flac
  Size: 25627729 Hash: 49F7A76C8FD93BB396C44FF60B6EB895 Accuracy: -m8
  Conclusion: CDDA 100%
  Signature: 5B4E99A3AF0A58230EBA0040316A3A75E0A81544
FILE: 04 - Tupelo Bound.flac
  Size: 26498604 Hash: B79ED7A9BE09850E9661FBA40D7121D1 Accuracy: -m8
  Conclusion: CDDA 100%
  Signature: 81EDF715772E201019DAB7EDCF9F51F75EAA78F0
FILE: 03 - Copenhagen Fast Track.flac
  Size: 42295754 Hash: 17D8E8B822665D645079261862161C31 Accuracy: -m8
  Conclusion: CDDA 100%
  Signature: 7294CC3EDFA0D05A1935F97BA692A3922D85AA4C
FILE: 02 - As Long As I Remember.flac
  Size: 30972557 Hash: A6EBDDA863E89B97C9F9B6FF15F6CA24 Accuracy: -m8
  Conclusion: CDDA 100%
  Signature: 61283F25D353504DB8ED87B31906B295A9912256
FILE: 01 - You're Doing It Right.flac
  Size: 25994031 Hash: DE6ABA4264E0ABF29EF1F9BD03DCF36E Accuracy: -m8
  Conclusion: CDDA 100%
  Signature: 7134379A88BFA9FC72CD59DD26FB1C6A577B3E07

Правила, инструкции, FAQ!!!
Торрент  Добавлен [16 янв 2021, 08:47] Скачать торрент Магнет ссылка
Скачать торрент
[ Размер 12.25 КБ / Просмотров 22 ]

Статус
Проверен 
 
Размер  286.63 МБ
Приватный: Нет (DHT включён)
.torrent скачан  0
 


     Отправить личное сообщение
   
Страница 1 из 1
Показать сообщения за:  Поле сортировки  
Начать новую тему Ответить на тему


Сейчас этот форум просматривают: нет зарегистрированных пользователей и гости: 0


Вы не можете начинать темы
Вы не можете отвечать на сообщения
Вы не можете редактировать свои сообщения
Вы не можете удалять свои сообщения
Вы не можете добавлять вложения

Перейти:  
cron