Начать новую тему Ответить на тему
Статистика раздачи
Размер: 233.63 МБ | Добавлен: 26 мар 2019, 20:56 | Скачали: 0
Сидеров: 0  [0 байт/сек]    Личеров: 0  [0 байт/сек]
Пред. тема | След. тема 

Автор
Сообщение

СообщениеДобавлено: 26 мар 2019, 20:56 

Ответить с цитатой 

Element of Crime / Die schonen Rosen
Жанр: Blues Rock
Носитель: CD
Страна-производитель диска (релиза): Germany
Год издания: 1996
Издатель (лейбл): Motor Music
Номер по каталогу: 533 154-2
Страна исполнителя (группы): Germany
Аудиокодек: FLAC (*.flac)
Тип рипа: image+.cue
Битрейт аудио: lossless
Продолжительность: 00:41:38
Источник (релизер): GolemXIV
Наличие сканов в содержимом раздачи: нет
Треклист:
01. Nur so
02. Wenn der Morgen graut
03. Die schonen Rosen
04. Mit dir allein
05. Abendbrot
06. Ohne dich
07. Tumbling Tumbleweed
08. Nichts mehr wie es war
09. Wer ich wirklich bin
10. Uber Nacht
11. Ulrikes Lied
Код:
Exact Audio Copy V1.1 from 23. June 2015
EAC extraction logfile from 16. September 2015, 10:38
Element of Crime / Die schönen Rosen
Used drive  : MATSHITADVD-RAM UJ8B1AS   Adapter: 1  ID: 0
Read mode               : Secure
Utilize accurate stream : Yes
Defeat audio cache      : Yes
Make use of C2 pointers : No
Read offset correction                      : 6
Overread into Lead-In and Lead-Out          : No
Fill up missing offset samples with silence : Yes
Delete leading and trailing silent blocks   : No
Null samples used in CRC calculations       : Yes
Used interface                              : Native Win32 interface for Win NT & 2000
Used output format              : User Defined Encoder
Selected bitrate                : 128 kBit/s
Quality                         : High
Add ID3 tag                     : Yes
Command line compressor         : C:\Program Files (x86)\Exact Audio Copy\Flac\flac.exe
Additional command line options : -V -8 -T "Date=%year%" -T "Genre=%genre%" %source%
TOC of the extracted CD
     Track |   Start  |  Length  | Start sector | End sector
    ---------------------------------------------------------
        1  |  0:00.00 |  4:26.32 |         0    |    19981
        2  |  4:26.32 |  4:29.30 |     19982    |    40186
        3  |  8:55.62 |  3:16.63 |     40187    |    54949
        4  | 12:12.50 |  4:39.05 |     54950    |    75879
        5  | 16:51.55 |  4:37.47 |     75880    |    96701
        6  | 21:29.27 |  3:25.65 |     96702    |   112141
        7  | 24:55.17 |  3:34.30 |    112142    |   128221
        8  | 28:29.47 |  3:19.58 |    128222    |   143204
        9  | 31:49.30 |  3:21.02 |    143205    |   158281
       10  | 35:10.32 |  3:43.50 |    158282    |   175056
       11  | 38:54.07 |  2:43.38 |    175057    |   187319
Range status and errors
Selected range
     Filename C:\Element of Crime - Die schönen Rosen.wav
     Peak level 99.9 %
     Extraction speed 1.8 X
     Range quality 99.9 %
     Test CRC 14307225
     Copy CRC 14307225
     Copy OK
No errors occurred
AccurateRip summary
Track  1  accurately ripped (confidence 83)  [D9D275C9]  (AR v2)
Track  2  accurately ripped (confidence 82)  [FC71A111]  (AR v2)
Track  3  accurately ripped (confidence 83)  [CC0DDAB4]  (AR v2)
Track  4  accurately ripped (confidence 83)  [6416BD98]  (AR v2)
Track  5  accurately ripped (confidence 82)  [95DB8F48]  (AR v2)
Track  6  accurately ripped (confidence 81)  [FD874234]  (AR v2)
Track  7  accurately ripped (confidence 81)  [AC016657]  (AR v2)
Track  8  accurately ripped (confidence 81)  [7F377952]  (AR v2)
Track  9  accurately ripped (confidence 80)  [97CCCBB4]  (AR v2)
Track 10  accurately ripped (confidence 81)  [512AC6F4]  (AR v2)
Track 11  accurately ripped (confidence 82)  [2FC62F33]  (AR v2)
All tracks accurately ripped
End of status report
==== Log checksum E0538D19B202AF33B53548728AD4BBD569674C33507ECB605C7DC238CE3D26A9 ====
Код:
REM DATE 1996
REM DISCID 8009C10B
REM COMMENT "ExactAudioCopy v1.1"
PERFORMER "Element of Crime"
TITLE "Die schonen Rosen"
FILE "Element of Crime - Die schonen Rosen.flac" WAVE
  TRACK 01 AUDIO
    TITLE "Nur so"
    PERFORMER "Element of Crime"
    INDEX 01 00:00:00
  TRACK 02 AUDIO
    TITLE "Wenn der Morgen graut"
    PERFORMER "Element of Crime"
    INDEX 00 04:23:22
    INDEX 01 04:26:32
  TRACK 03 AUDIO
    TITLE "Die schonen Rosen"
    PERFORMER "Element of Crime"
    INDEX 00 08:53:57
    INDEX 01 08:55:62
  TRACK 04 AUDIO
    TITLE "Mit dir allein"
    PERFORMER "Element of Crime"
    INDEX 00 12:09:40
    INDEX 01 12:12:50
  TRACK 05 AUDIO
    TITLE "Abendbrot"
    PERFORMER "Element of Crime"
    INDEX 00 16:49:40
    INDEX 01 16:51:55
  TRACK 06 AUDIO
    TITLE "Ohne dich"
    PERFORMER "Element of Crime"
    INDEX 00 21:26:12
    INDEX 01 21:29:27
  TRACK 07 AUDIO
    TITLE "Tumbling Tumbleweed"
    PERFORMER "Element of Crime"
    INDEX 00 24:51:55
    INDEX 01 24:55:17
  TRACK 08 AUDIO
    TITLE "Nichts mehr wie es war"
    PERFORMER "Element of Crime"
    INDEX 00 28:26:45
    INDEX 01 28:29:47
  TRACK 09 AUDIO
    TITLE "Wer ich wirklich bin"
    PERFORMER "Element of Crime"
    INDEX 00 31:46:60
    INDEX 01 31:49:30
  TRACK 10 AUDIO
    TITLE "Uber Nacht"
    PERFORMER "Element of Crime"
    INDEX 00 35:06:42
    INDEX 01 35:10:32
  TRACK 11 AUDIO
    TITLE "Ulrikes Lied"
    PERFORMER "Element of Crime"
    INDEX 00 38:51:07
    INDEX 01 38:54:07
Правила, инструкции, FAQ!!!
Торрент  Добавлен [26 мар 2019, 20:56] Скачать торрент Магнет ссылка
Скачать торрент
[ Размер 18.97 КБ / Просмотров 2 ]

Статус
Проверен 
 
Размер  233.63 МБ
Приватный: Нет (DHT включён)
.torrent скачан  0
 


     Отправить личное сообщение
   
Страница 1 из 1
Показать сообщения за:  Поле сортировки  
Начать новую тему Ответить на тему


Сейчас этот форум просматривают: нет зарегистрированных пользователей и гости: 0


Вы не можете начинать темы
Вы не можете отвечать на сообщения
Вы не можете редактировать свои сообщения
Вы не можете удалять свои сообщения
Вы не можете добавлять вложения

Перейти:  
cron